Сегодня идет свободное скачивание без начисления Download

Северо-западная конная полиция / North West Mounted Police (Сесил Блаунт Де Милль) (Боевик, Драма, Мелодрама, Приключения, Вестерн, 1940) DVDRip [H.264]

Ответить на тему
 
Автор
Сообщение

Omen ®

Стаж: 4 года 1 месяц

Сообщений: 194359

Торрент-статистика

Пост 17-Июн-2013 10:18

[Цитировать]

Северо-западная конная полиция
North West Mounted Police
-«The roaring magnificence of 'Union Pacific' . . . the pulse-pounding action of 'The Plainsman' . . . two surging love stories woven into an unforgettable drama of human emotions . . . told against the blazing beauty of the northern forests . . . filmed in SUPER TECHNICOLOR !»- Русское название: Северо-западная конная полиция
Оригинальное название: North West Mounted Police
Год выпуска: 1940
Жанр: Боевик, Драма, Мелодрама, Приключения, Вестерн
Страна: США
Производство: Paramount Pictures
Описание фильма:
Действие фильма происходит в Канаде во время восстания креолов и индейцев.
Было совершено зверское убийство. Убийца не был сразу пойман. Ему удалось уйти от погони и покинуть пределы Канады. Полиция бросается в погоню за злоумышленником и неожиданно приобретает нового союзника. Им становится бродячий техасский ковбой, который объединяет силы с представителями закона для поимки преступника...
Режиссер: Сесил Блаунт Де Милль
Сценарий: Алан Ле Мэй, Джесси Ласки мл., С. Гарднер Салливан
Продюсер: Сесил Блаунт Де Милль, Уильям Х. Пайн, Уильям ЛеБарон
Актеры: Гэри Купер, Мэдлен Кэррол, Полетт Годдар, Престон Фостер, Роберт Престон, Джордж Бэнкрофт, Линн Оверман, Аким Тамирофф, Уолтер Хэмпден, Лон Чейни мл.
Продолжительность: 02:00:56
Перевод: Одноголосый закадровый
Субтитры: Отсутствуют

Дата мировой премьеры: 21 октября 1940
Видеокодек: MPEG-4 AVC/H.264
Битрейт видео: ~1800 Кбит/сек
Размер кадра: 720x528
Качество видео: DVDRip
Аудиокодек: AC3 2.0
Битрейт аудио: 192 kbps

Награды:

Оскар, 1941 год
Победитель (1):
Лучший монтаж
Номинации (4):
Лучшая работа оператора (цветные фильмы)
Лучшая работа художника (цветные фильмы)
Лучший звук
Лучший оригинальный саундтрек

MediaInfo:

General
Unique ID : 174606252197810874081417044590586788956 (0x835BF0E2A7FDA230966BA01B6C507C5C)
Complete name : H:\Downloads\Северо-западная конная полиция.mkv
Format : Matroska
Format version : Version 4 / Version 2
File size : 1.68 GiB
Duration : 2h 0mn
Overall bit rate : 1 994 Kbps
Encoded date : UTC 2013-06-15 00:20:10
Writing application : mkvmerge v6.0.0 ('Coming Up For Air') built on Jan 20 2013 09:52:00
Writing library : libebml v1.3.0 + libmatroska v1.4.0
Video
ID : 1
Format : AVC
Format/Info : Advanced Video Codec
Format profile : [url=mailto:[email protected]][email protected][/url]
Format settings, CABAC : Yes
Format settings, ReFrames : 8 frames
Codec ID : V_MPEG4/ISO/AVC
Duration : 2h 0mn
Bit rate : 1 800 Kbps
Width : 720 pixels
Height : 528 pixels
Display aspect ratio : 4:3
Frame rate mode : Constant
Frame rate : 25.000 fps
Color space : YUV
Chroma subsampling : 4:2:0
Bit depth : 8 bits
Scan type : Progressive
Bits/(Pixel*Frame) : 0.189
Stream size : 1.49 GiB (88%)
Title : North West Mounted Police
Writing library : x264 core 125 r2208 d9d2288
Encoding settings : cabac=1 / ref=8 / deblock=1:-1:-1 / analyse=0x3:0x133 / me=umh / subme=9 / psy=1 / psy_rd=1.00:0.10 / mixed_ref=1 / me_range=32 / chroma_me=1 / trellis=2 / 8x8dct=1 / cqm=0 / deadzone=21,11 / fast_pskip=0 / chroma_qp_offset=-3 / threads=6 / lookahead_threads=1 / sliced_threads=0 / nr=0 / decimate=1 / interlaced=0 / bluray_compat=0 / constrained_intra=0 / bframes=3 / b_pyramid=2 / b_adapt=2 / b_bias=0 / direct=3 / weightb=1 / open_gop=0 / weightp=2 / keyint=250 / keyint_min=25 / scenecut=40 / intra_refresh=0 / rc_lookahead=60 / rc=2pass / mbtree=1 / bitrate=1800 / ratetol=1.0 / qcomp=0.60 / qpmin=10 / qpmax=51 / qpstep=4 / cplxblur=20.0 / qblur=0.5 / ip_ratio=1.40 / aq=1:1.00
Language : English
Default : Yes
Forced : No
Audio
ID : 2
Format : AC-3
Format/Info : Audio Coding 3
Mode extension : CM (complete main)
Format settings, Endianness : Big
Codec ID : A_AC3
Duration : 2h 0mn
Bit rate mode : Constant
Bit rate : 192 Kbps
Channel(s) : 2 channels
Channel positions : Front: L R
Sampling rate : 48.0 KHz
Bit depth : 16 bits
Compression mode : Lossy
Stream size : 166 MiB (10%)
Title : Профессиональный (одноголосый)
Language : Russian
Default : Yes
Forced : No
Скриншоты:                    
Вне форума [Профиль] [ЛС]
Похожие темы
Форум Тема Автор Торрент Отв. Посл. сообщение
./templates/default/images/folder_dl.gif RPG The Lord Of The Rings. War In The North / Властелин Колец. Война на Севере [RePack] [RUS / ENG] (2011) (1.0.0.1) Omen
1 | 0

0 | 472

8

2013-09-20 16:00
Omen Последнее
Показать сообщения:    
Ответить на тему

Текущее время: Сегодня 01:19

Часовой пояс: GMT + 3



Вы не можете начинать темы
Вы не можете отвечать на сообщения
Вы не можете редактировать свои сообщения
Вы не можете удалять свои сообщения
Вы не можете голосовать в опросах
Вы не можете прикреплять файлы к сообщениям
Вы не можете скачивать файлы