Сегодня идет свободное скачивание без начисления Download

Загнанных лошадей пристреливают, не правда ли? / They Shoot Horses, Don\'t They? (1969) DVDRip

Ответить на тему
 
Автор
Сообщение

UndegraundMen ®

Стаж: 3 года 9 месяцев

Сообщений: 28329

Торрент-статистика

Пост 18-Июн-2013 03:02

[Цитировать]

Загнанных лошадей пристреливают, не правда ли? / They Shoot Horses, Don't They? (1969) DVDRip
«People are the ultimate spectacle»
-- Русское название: Загнанных лошадей пристреливают, не правда ли?
Оригинальное название: They Shoot Horses, Don't They?
Год выпуска: 1969
Страна: США | American Broadcasting Company (ABC), Palomar Pictures Corporation
Жанр: Драма-Описание фильма:
Америка в тяжелые годы Великой депрессии. Всюду безработица, бедность, люди уезжают из родных мест в поисках лучшей доли на чужбине и берутся за любую работу, чтобы заработать на кусок хлеба и крышу над головой. Поэтому не удивительно, что весьма сомнительный «крупнейший в мире» танцевальный марафон с призом в 1500 долларов легко собрал в мрачном ангаре на побережье несколько десятков участников со всей страны.
Молодой ковбой и седой моряк, беременная женщина и унылый фермер, циничная девушка «с прошлым» Глория и немолодая бывшая актриса без будущего… Все они такие разные, но каждый готов на всё ради выигрыша. В изнеможении они танцуют сутками напролет — с перерывами только в 10 минут. От усталости, боли и бессонницы прежде азартные и нарядные, участники марафона постепенно теряют чувство реальности и ощущение собственного «Я».
Они, как загнанные лошади, «на последнем дыхании» упорно стремятся к победе, не вспоминая о выбывших из гонки. Вот только — хватит ли сил даже у победителей, добравшихся до заветного финиша, жить после «финиша» дальше. Ведь загнанных лошадей пристреливают, не правда ли.-Режиссер: Сидни Поллак
Актеры: Джейн Фонда, Майкл Саразин, Сюзанна Йорк, Гиг Янг, Ред Баттонс, Бонни Беделиа, Майкл Конрад, Брюс Дерн, Аль Льюис, Роберт Филдс ...
Продолжительность: 01:53:27
Перевод: Дублированный
 
рейтинг MPAA:
Дата мировой премьеры: 10 декабря 1969
Видеокодек: Xvid
Битрейт видео: ~1096 Kbps
Размер кадра: 704*304
Качество видео: DVDRip
Аудиокодек: MP3 2 ch
Аудио #1: 128 Kbps, русский (советский дубляж с начиткой титров из многоголоски)
Аудио #2: 128 Kbps, русский (советский дубляж без начитки титров из многоголоски)
Аудио #3: 128 Kbps, русский (профессиональный многоголосый - 5-й канал, Санкт-Петербург)
Аудио #4: 128 Kbps, английский

MediaInfo:

Код:
General
Complete name                            : :\\They.Shoot.Horses.Don.t.They.1969.DVDRip.avi
Format                                   : AVI
Format/Info                              : Audio Video Interleave
File size                                : 1.29 GiB
Duration                                 : 1h 53mn
Overall bit rate                         : 1 632 Kbps
Writing application                      : VirtualDubMod 1.5.10.2 (build 2540/release)
Writing library                          : VirtualDubMod build 2540/release
Video
ID                                       : 0
Format                                   : MPEG-4 Visual
Format profile                           : Advanced [email protected]
Format settings, BVOP                    : 2
Format settings, QPel                    : No
Format settings, GMC                     : No warppoints
Format settings, Matrix                  : Default (H.263)
Codec ID                                 : XVID
Codec ID/Hint                            : XviD
Duration                                 : 1h 53mn
Bit rate                                 : 1 096 Kbps
Width                                    : 704 pixels
Height                                   : 304 pixels
Display aspect ratio                     : 2.35:1
Frame rate                               : 25.000 fps
Color space                              : YUV
Chroma subsampling                       : 4:2:0
Bit depth                                : 8 bits
Scan type                                : Progressive
Compression mode                         : Lossy
Bits/(Pixel*Frame)                       : 0.205
Stream size                              : 889 MiB (67%)
Writing library                          : XviD 1.1.2 (UTC 2006-11-01)
Audio #1
ID                                       : 1
Format                                   : MPEG Audio
Format version                           : Version 1
Format profile                           : Layer 3
Mode                                     : Joint stereo
Codec ID                                 : 55
Codec ID/Hint                            : MP3
Duration                                 : 1h 53mn
Bit rate mode                            : Constant
Bit rate                                 : 128 Kbps
Channel(s)                               : 2 channels
Sampling rate                            : 48.0 KHz
Compression mode                         : Lossy
Stream size                              : 104 MiB (8%)
Alignment                                : Aligned on interleaves
Interleave, duration                     : 40 ms (1.00 video frame)
Interleave, preload duration             : 504 ms
Audio #2
ID                                       : 2
Format                                   : MPEG Audio
Format version                           : Version 1
Format profile                           : Layer 3
Mode                                     : Joint stereo
Codec ID                                 : 55
Codec ID/Hint                            : MP3
Duration                                 : 1h 53mn
Bit rate mode                            : Constant
Bit rate                                 : 128 Kbps
Channel(s)                               : 2 channels
Sampling rate                            : 48.0 KHz
Compression mode                         : Lossy
Stream size                              : 104 MiB (8%)
Alignment                                : Aligned on interleaves
Interleave, duration                     : 40 ms (1.00 video frame)
Interleave, preload duration             : 504 ms
Audio #3
ID                                       : 3
Format                                   : MPEG Audio
Format version                           : Version 1
Format profile                           : Layer 3
Mode                                     : Joint stereo
Codec ID                                 : 55
Codec ID/Hint                            : MP3
Duration                                 : 1h 53mn
Bit rate mode                            : Constant
Bit rate                                 : 128 Kbps
Channel(s)                               : 2 channels
Sampling rate                            : 48.0 KHz
Compression mode                         : Lossy
Stream size                              : 104 MiB (8%)
Alignment                                : Aligned on interleaves
Interleave, duration                     : 40 ms (1.00 video frame)
Interleave, preload duration             : 504 ms
Audio #4
ID                                       : 4
Format                                   : MPEG Audio
Format version                           : Version 1
Format profile                           : Layer 3
Mode                                     : Joint stereo
Codec ID                                 : 55
Codec ID/Hint                            : MP3
Duration                                 : 1h 53mn
Bit rate mode                            : Constant
Bit rate                                 : 128 Kbps
Channel(s)                               : 2 channels
Sampling rate                            : 48.0 KHz
Compression mode                         : Lossy
Stream size                              : 104 MiB (8%)
Alignment                                : Aligned on interleaves
Interleave, duration                     : 40 ms (1.00 video frame)
Interleave, preload duration             : 504 ms
Скриншоты:            Время раздачи: 24/7 до 3-х скачавших
Вне форума [Профиль] [ЛС]
Показать сообщения:    
Ответить на тему

Текущее время: Сегодня 17:38

Часовой пояс: GMT + 3



Вы не можете начинать темы
Вы не можете отвечать на сообщения
Вы не можете редактировать свои сообщения
Вы не можете удалять свои сообщения
Вы не можете голосовать в опросах
Вы не можете прикреплять файлы к сообщениям
Вы не можете скачивать файлы