Сегодня идет свободное скачивание без начисления Download

На последнем берегу / On the Beach (Рассел Малкэй) (Фантастика, драма, 2000) DVDRip

Ответить на тему
 
Автор
Сообщение

Omen ®

Стаж: 4 года 1 месяц

Сообщений: 194359

Торрент-статистика

Пост 18-Июн-2013 19:40

[Цитировать]

На последнем берегу / On the Beach - Русское название: На последнем берегу
Оригинальное название: On the Beach
Производство: США, Австралия
Год выпуска: 2000
Жанр: Фантастика, драма
Описание фильма:
В 2006 году обмен ракетными ударами между Китаем и США и последовавшая за этим мировая ядерная война сметают человечество с лица Земли. Радиоактивные осадки угрожают уничтожить последний очаг цивилизации — Австралию.
Подводная лодка «Чарлстон» под командованием капитана Дуайта Тауэрса, единственный уцелевший в войне корабль американского военно — морского флота, прибывает в Мельбурн. Взяв на борт ученого Джулиана Осборна, «Чарлстон» отправляется в «экспедицию последней надежды» к берегам Аляски, откуда поступают таинственные, еле слышные радиосигналы…
Режиссер: Рассел Малкэй
Актеры: Арманд Ассанте, Рэйчел Уорд, Брайан Браун, Жаклин МакКензи, Грант Боулер, Эллисон Веббер, Тигхэн Веббер
Продолжительность: 03:16:21
Перевод: Профессиональный многоголосый

Видеокодек: Xvid
Битрейт видео: ~900 Кбит/с
Размер кадра: 640x480
Качество видео: DVDRip
Аудиокодек: AC3 2.0
Битрейт аудио: 192 Кбит/с

MediaInfo:

Общее
Полное имя : C:\Justlan\На последнем берегу\Na poslednem beregu.avi
Формат : AVI
Формат/Информация : Audio Video Interleave
Размер файла : 1,51 Гбайт
Продолжительность : 3 ч. 16 м.
Общий поток : 1102 Кбит/сек
Библиотека кодирования : VirtualDub build 32817/release
Видео
Идентификатор : 0
Формат : MPEG-4 Visual
Профиль формата : Advanced [email protected]
Параметр BVOP формата : 1
Параметр QPel формата : Нет
Параметр GMC формата : Без точки перехода
Параметр матрицы формата : Default (H.263)
Идентификатор кодека : XVID
Идентификатор кодека/Подсказка : XviD
Продолжительность : 3 ч. 16 м.
Битрейт : 900 Кбит/сек
Ширина : 640 пикселей
Высота : 480 пикселей
Соотношение сторон : 4:3
Частота кадров : 25,000 кадров/сек
Цветовое пространство : YUV
Субдискретизация насыщенности : 4:2:0
Битовая глубина : 8 бит
Тип развёртки : Прогрессивная
Метод сжатия : С потерями
Бит/(Пиксели*Кадры) : 0.117
Размер потока : 1,23 Гбайт (82%)
Библиотека кодирования : XviD 64
Аудио
Идентификатор : 1
Формат : AC-3
Формат/Информация : Audio Coding 3
Расширение режима : CM (complete main)
Идентификатор кодека : 2000
Продолжительность : 3 ч. 16 м.
Вид битрейта : Постоянный
Битрейт : 192 Кбит/сек
Каналы : 1 канал
Расположение каналов : Front: C
Частота : 48,0 КГц
Битовая глубина : 16 бит
Метод сжатия : С потерями
Размер потока : 269 Мбайт (17%)
Выравнивание : Соединение по промежуткам
Продолжительность промежутка : 40 мс. (1,00 видеокадр)
Время предзагрузки промежутка : 992 мс.
Скриншоты:          
         
Вне форума [Профиль] [ЛС]
Показать сообщения:    
Ответить на тему

Текущее время: Сегодня 01:14

Часовой пояс: GMT + 3



Вы не можете начинать темы
Вы не можете отвечать на сообщения
Вы не можете редактировать свои сообщения
Вы не можете удалять свои сообщения
Вы не можете голосовать в опросах
Вы не можете прикреплять файлы к сообщениям
Вы не можете скачивать файлы