Сегодня идет свободное скачивание без начисления Download

Черная сутана / Black Robe(Брюс Бересфорд) (драма, приключения, вестерн, история, 1991) DVDRip

Ответить на тему
 
Автор
Сообщение

Omen ®

Стаж: 4 года 1 месяц

Сообщений: 194394

Торрент-статистика

Пост 18-Июн-2013 20:49

[Цитировать]

Черная сутана / Black Robe - Русское название: Черная сутана
Оригинальное название: Black Robe
Год выпуска: 1991
Производство: Канада, Австралия, США
Жанр: драма, приключения, вестерн, история-Описание фильма: Действие происходит в XVII столетии в Новом Свете. Отец Лафорг — священник, которого Шамплен, основатель и губернатор Квебека, посылает в пограничную зону, чтобы обращать индейцев племени гуронов в истинную веру.
Поклявшись быть проводником и защитником Лафорга, в путь отправляется и вождь алгонкинов Хомина, взявший с собой жену, юного сына и очень красивую дочь Аннуку, еще не достигшую совершеннолетия. Их также сопровождают несколько его воинов со своими семьями.
Побуждаемый в равной степени страстью к Аннуке и стремлением служить Господу, к компании присоединяется молодой французский поселенец Даниэль. Вместе они отправляются в путешествие, в котором никого из них не ждет ничего хорошего…-Режиссер: Брюс Бересфорд- Актеры: Лотер Блюто, Аден Янг, Сандрин Холт, Аугуст Шелленберг, Танту Кардинал, Билли Ту Риверз, Лоуренс Бэйн, Харрисон Лью, Уэсли Коте, Фрэнк Уилсон.-Продолжительность: 01:40:45
Перевод: Авторский (одноголосый закадровый) - Василий Горчаков
Язык субтитров: отсутствуют
-
-Дата мировой премьеры: ........................................5 сентября 1991-Рейтинг MPAA: Рейтинг R - Детям до 17 лет обязательно присутствие родителей
-Видеокодек: XviD
Битрейт видео: ~894 Кбит/с
Размер кадра: 672x368
Качество видео: DVDRip
Аудиокодек: MP3, 2.0
Битрейт аудио: 128 Кбит/с
-

MediaInfo

General
Complete name : D:\Видео\Chernaya_sutana_(1991).DVDRip.Xvid.avi
Format : AVI
Format/Info : Audio Video Interleave
File size : 744 MiB
Duration : 1h 40mn
Overall bit rate : 1 032 Kbps
Movie name : Черная Сутана / Черное одеяние / Black Robe (1991) DVDRip
Director :
Writing application : VirtualDubMod 1.5.10.3 | www.virtualdub-fr.org || (build 2550/release)
Video
ID : 0
Format : MPEG-4 Visual
Format profile : Advanced [email protected]
Format settings, BVOP : 2
Format settings, QPel : No
Format settings, GMC : No warppoints
Format settings, Matrix : Custom
Codec ID : XVID
Codec ID/Hint : XviD
Duration : 1h 40mn
Bit rate : 894 Kbps
Width : 672 pixels
Height : 368 pixels
Display aspect ratio : 1.85:1
Frame rate : 23.976 fps
Color space : YUV
Chroma subsampling : 4:2:0
Bit depth : 8 bits
Scan type : Progressive
Compression mode : Lossy
Bits/(Pixel*Frame) : 0.151
Stream size : 645 MiB (87%)
Writing library : XviD 73
Audio
ID : 1
Format : MPEG Audio
Format version : Version 1
Format profile : Layer 3
Codec ID : 55
Codec ID/Hint : MP3
Duration : 1h 40mn
Bit rate mode : Constant
Bit rate : 128 Kbps
Channel(s) : 2 channels
Sampling rate : 48.0 KHz
Compression mode : Lossy
Stream size : 92.3 MiB (12%)
Alignment : Aligned on interleaves
Interleave, duration : 42 ms (1.00 video frame)
Interleave, preload duration : 504 ms
Writing library : LAME3.99r
Encoding settings : -m s -V 4 -q 0 -lowpass 17 -b 128
-Скриншоты:
         
       
-
Вне форума [Профиль] [ЛС]
Похожие темы
Форум Тема Автор Торрент Отв. Посл. сообщение
./templates/default/images/folder_dl.gif Приключения, детектив, боевик, триллер Стаут Рекс - Ниро Вульф 33, Черная гора [Герасимов Вячеслав, 2014 г., 96 kbps, MP3] Omen
1 | 0

0 | 1048

11

2015-05-27 03:26
Omen Последнее
./templates/default/images/folder_dl.gif Зарубежные фильмы с переводом Шелковые Чулки: Черная Вдова (rus) (Geraldine Greystoke, Greg Steel, Horizon) [1995 г., DVDRip] Fanatik
1 | 0

0 | 424

10

2016-02-13 21:55
Fanatik Последнее
./templates/default/images/folder_dl.gif Психология, Тренинг, Саморазвитие Ричард Дэнсон | Черная риторика. Запрещенные приёмы ведения дискуссий (2016) [FB2] [email protected]
1 | 0

0 | 118

4

2016-11-25 18:50
[email protected] Последнее
Показать сообщения:    
Ответить на тему

Текущее время: Сегодня 20:58

Часовой пояс: GMT + 3



Вы не можете начинать темы
Вы не можете отвечать на сообщения
Вы не можете редактировать свои сообщения
Вы не можете удалять свои сообщения
Вы не можете голосовать в опросах
Вы не можете прикреплять файлы к сообщениям
Вы не можете скачивать файлы