Сегодня идет свободное скачивание без начисления Download

Маленький магазинчик ужасов / Лавка ужасов / Little Shop of Horrors (Фрэнк Оз) (Mюзикл, Ужасы, Комедия, 1986) BDRip

Ответить на тему
 
Автор
Сообщение

Omen ®

Стаж: 4 года 1 месяц

Сообщений: 194359

Торрент-статистика

Пост 19-Июн-2013 10:18

[Цитировать]

Маленький магазинчик ужасов / Лавка ужасов / Little Shop of Horrors- Русское название: Маленький магазинчик ужасов
Оригинальное название: Little Shop of Horrors
Год выпуска: 1986
Жанр: Mюзикл, Ужасы, Комедия
Описание фильма:
В цветочном магазине выставили странное растение - зловещий цветок, с появлением которого и началась эта история. Цветок не нуждался в обычном уходе, в поливке, в солнечном свете, - потому что по природе своей он… людоед. И каждый вечер он ждет новую жертву к себе на ужин.
Эта знаменитая, прогремевшая на всю Америку картина - великолепный мюзикл, забавный и страшный одновременно, с участием монстра - цветка и известнейших американских комиков.
Режиссер: Фрэнк Оз
Актеры: Рик Морэнис, Джеймс Белуши, Джон Кэнди, Билл Мюррей, Стив Мартин,
Эллен Грин, Винсент Гардения, Тичина Арнольд, Мишель Викс, Тиша Кэмпбелл, Леви Стаббс...
Качество видео: BDRip (источник: Blu-Ray Remux / 1080р)
Продолжительность: 01:33:54
Перевод: Профессиональный (многоголосый, закадровый)
/ Авторский (одноголосый, закадровый) А. Михалёв
Видео: XviD build 65, 704x400 (1.76:1), 1817 kbps avg, 0.27 bit/pix
Аудио 1: AC3 Dolby Digital, 2/0 (L,R) ch, 192 kbps avg - многоголосый
Аудио 2: AC3 Dolby Digital, 2/0 (L,R) ch, 192 kbps avg - одноголосый

MediaInfo:

Общее
Полное имя : C:\Users\Torrents\Little Shop of Horrors\Malenkiy.magazinchik.uzhasov.1986.BDRip.avi
Формат : AVI
Формат/Информация : Audio Video Interleave
Размер файла : 1,45 Гбайт
Продолжительность : 1 ч. 33 м.
Общий поток : 2215 Кбит/сек
Название фильма : Лавка ужасов / Маленький магазинчик ужасов / Little Shop of Horrors (1986) BDRip
Режиссёр : yaroslaigor
Жанр : мюзикл, комедия
Программа кодирования : VirtualDubMod 1.5.10.2 (build 2542/release)
Правообладатель : hqclub
Видео
Идентификатор : 0
Формат : MPEG-4 Visual
Профиль формата : Advanced [email protected]
Параметр BVOP формата : 1
Параметр QPel формата : Нет
Параметр GMC формата : Без точки перехода
Параметр матрицы формата : Выборочная
Идентификатор кодека : XVID
Идентификатор кодека/Подсказка : XviD
Продолжительность : 1 ч. 33 м.
Битрейт : 1817 Кбит/сек
Ширина : 704 пикселя
Высота : 400 пикселей
Соотношение сторон : 16:9
Частота кадров : 23,976 кадра/сек
Цветовое пространство : YUV
Субдискретизация насыщенности : 4:2:0
Битовая глубина : 8 бит
Тип развёртки : Прогрессивная
Метод сжатия : С потерями
Бит/(Пиксели*Кадры) : 0.269
Размер потока : 1,19 Гбайт (82%)
Библиотека кодирования : XviD 65
Аудио #1
Идентификатор : 1
Формат : AC-3
Формат/Информация : Audio Coding 3
Расширение режима : CM (complete main)
Параметр Endianness формата : Big
Идентификатор кодека : 2000
Продолжительность : 1 ч. 33 м.
Вид битрейта : Постоянный
Битрейт : 192 Кбит/сек
Каналы : 2 канала
Расположение каналов : Front: L R
Частота : 44,1 КГц
Битовая глубина : 16 бит
Метод сжатия : С потерями
Размер потока : 129 Мбайт (9%)
Выравнивание : Разделение по промежуткам
Продолжительность промежутка : 42 мс. (1,00 видеокадр)
Время предзагрузки промежутка : 500 мс.
Аудио #2
Идентификатор : 2
Формат : AC-3
Формат/Информация : Audio Coding 3
Расширение режима : CM (complete main)
Параметр Endianness формата : Big
Идентификатор кодека : 2000
Продолжительность : 1 ч. 33 м.
Вид битрейта : Постоянный
Битрейт : 192 Кбит/сек
Каналы : 2 канала
Расположение каналов : Front: L R
Частота : 48,0 КГц
Битовая глубина : 16 бит
Метод сжатия : С потерями
Размер потока : 129 Мбайт (9%)
Выравнивание : Разделение по промежуткам
Продолжительность промежутка : 42 мс. (1,00 видеокадр)
Время предзагрузки промежутка : 500 мс.
         
       
Вне форума [Профиль] [ЛС]
Похожие темы
Форум Тема Автор Торрент Отв. Посл. сообщение
./templates/default/images/folder_dl.gif Детская литература VA | Аудиосказки для самых маленьких и не только [2011] [MP3] Omen
0 | 1

0 | 1222

6

2011-07-10 17:09
Omen Последнее
Показать сообщения:    
Ответить на тему

Текущее время: Сегодня 10:57

Часовой пояс: GMT + 3



Вы не можете начинать темы
Вы не можете отвечать на сообщения
Вы не можете редактировать свои сообщения
Вы не можете удалять свои сообщения
Вы не можете голосовать в опросах
Вы не можете прикреплять файлы к сообщениям
Вы не можете скачивать файлы