Сегодня идет свободное скачивание без начисления Download

О мышах и людях / Of Mice and Men (Гэри Синиз) (Драма, 1992) HDTVRip

Ответить на тему
 
Автор
Сообщение

Omen ®

Стаж: 4 года 1 месяц

Сообщений: 194394

Торрент-статистика

Пост 20-Июн-2013 15:21

[Цитировать]

О мышах и людях / Of Mice and Men- Русское название: О мышах и людях
Оригинальное название: Of Mice and Men
Год выпуска: 1992
Жанр: Драма
Описание фильма:
Экранизация одноименной повести Джона Стейнбека о двух приятелях, которые в годы Великой Депрессии бродили по Америке в поисках работы. Неглупый крепкий парень Джордж и слабоумный здоровяк Ленни - удача редко улыбалась им, но Джордж не мог бросить Ленни, который наверняка бы моментально попал в какую-нибудь неприятную ситуацию. И все-таки трагический день в жизни обоих наступил. Через некоторое время после начала работы на ранчо Тайлера…
Режиссер: Гэри Синиз
Актеры: Джон Малкович, Гэри Синиз, Шерилин Фенн,
Рей Уолстон, Кэйси Семашко, Джон Терри, Ричард Риле, Алексис Аркетт, Джо Мортон, Ноубл Уиллингэм...
Качество видео: HDTVRip (исходник: HDTV 1080i)
Продолжительность: 01:45:43
Перевод: Профессиональный (двуголосый, закадровый)
Видео: XviD build 50, 720x400 (1.80:1), 1780 kbps, 0.24 bit/pix
Аудио: 48 kHz, MPEG Layer 3, 192.00 kbps avg, 2 ch

MediaInfo:

Общее
Полное имя : C:\Users\Torrents\Mice\Of Mice and Men_1992_HDTVRip.avi
Формат : AVI
Формат/Информация : Audio Video Interleave
Размер файла : 1,46 Гбайт
Продолжительность : 1 ч. 45 м.
Общий поток : 1982 Кбит/сек
Название фильма : О мышах и людях
Режиссёр : Rip by Ledy_X
Программа кодирования : VirtualDubMod 1.5.10.2 (build 2540/release)
Библиотека кодирования : VirtualDubMod build 2540/release
Видео
Идентификатор : 0
Формат : MPEG-4 Visual
Профиль формата : Advanced [email protected]
Параметр BVOP формата : 1
Параметр QPel формата : Нет
Параметр GMC формата : Без точки перехода
Параметр матрицы формата : Выборочная
Идентификатор кодека : DX50
Идентификатор кодека/Подсказка : DivX 5
Продолжительность : 1 ч. 45 м.
Битрейт : 1780 Кбит/сек
Ширина : 720 пикселей
Высота : 400 пикселей
Соотношение сторон : 16:9
Частота кадров : 25,000 кадров/сек
Цветовое пространство : YUV
Субдискретизация насыщенности : 4:2:0
Битовая глубина : 8 бит
Тип развёртки : Прогрессивная
Метод сжатия : С потерями
Бит/(Пиксели*Кадры) : 0.247
Размер потока : 1,31 Гбайт (90%)
Библиотека кодирования : XviD 1.2.1 (UTC 2008-12-04)
Аудио
Идентификатор : 1
Формат : MPEG Audio
Версия формата : Version 1
Профиль формата : Layer 3
Идентификатор кодека : 55
Идентификатор кодека/Подсказка : MP3
Продолжительность : 1 ч. 45 м.
Вид битрейта : Постоянный
Битрейт : 192 Кбит/сек
Каналы : 2 канала
Частота : 48,0 КГц
Метод сжатия : С потерями
Размер потока : 145 Мбайт (10%)
Выравнивание : Соединение по промежуткам
Продолжительность промежутка : 40 мс. (1,00 видеокадр)
Время предзагрузки промежутка : 504 мс.
         
       
Вне форума [Профиль] [ЛС]
Показать сообщения:    
Ответить на тему

Текущее время: Сегодня 17:29

Часовой пояс: GMT + 3



Вы не можете начинать темы
Вы не можете отвечать на сообщения
Вы не можете редактировать свои сообщения
Вы не можете удалять свои сообщения
Вы не можете голосовать в опросах
Вы не можете прикреплять файлы к сообщениям
Вы не можете скачивать файлы