Сегодня идет свободное скачивание без начисления Download

Приятель, держись от меня подальше / Amico, stammi lontano almeno un palmo (Микеле Лупо) (Комедия, Вестерн, 1972) DVDRip [H.264]

Ответить на тему
 
Автор
Сообщение

Omen ®

Стаж: 4 года 1 месяц

Сообщений: 194394

Торрент-статистика

Пост 20-Июн-2013 15:26

[Цитировать]

Приятель, держись от меня подальше
Amico, stammi lontano almeno un palmo
- Русское название: Приятель, держись от меня подальше
Оригинальное название: Amico, stammi lontano almeno un palmo
Год выпуска: 1972
Жанр: Комедия, Вестерн
Страна: Италия, Франция
Производство: Jupiter Generale Cinematografica
Описание фильма:
Бен выходит из тюрьмы, у ворот которой его уже третий день поджидает «друг» Чарли, мечтающий хорошенько отдубасить товарища. Чисто по-дружески друг друга полупцевав они расходятся в разные стороны…
Режиссер: Микеле Лупо
Сценарий: Серджо Донати, Джордж Истмен
Актеры: Джулиано Джемма, Джордж Истмен, Витторио, Джакомо Росси-Стюарт, Лучано Катеначчи, Мариза Мелл, Ремо Капитани, Нелло Паццафини, Джойя Дезидери, Витторио Фанфони
Продолжительность: 01:48:50
Перевод: Одноголосый закадровый
Субтитры: Отсутствуют

Дата мировой премьеры: 4 февраля 1972
Видеокодек: MPEG-4 AVC/H.264
Битрейт видео: ~1900 Кбит/сек
Размер кадра: 720x304
Качество видео: DVDRip
Аудиокодек: AC3 2.0
Битрейт аудио: 192 kbps

MediaInfo:

General
Unique ID : 236690948115966164523084283134041056349 (0xB21104B96A01C89CB555F20CAEDEE45D)
Complete name : H:\Downloads\Приятель, держись от меня подальше.mkv
Format : Matroska
Format version : Version 4 / Version 2
File size : 1.59 GiB
Duration : 1h 48mn
Overall bit rate : 2 094 Kbps
Encoded date : UTC 2013-06-18 12:25:52
Writing application : mkvmerge v6.0.0 ('Coming Up For Air') built on Jan 20 2013 09:52:00
Writing library : libebml v1.3.0 + libmatroska v1.4.0
Video
ID : 1
Format : AVC
Format/Info : Advanced Video Codec
Format profile : [url=mailto:[email protected]][email protected][/url]
Format settings, CABAC : Yes
Format settings, ReFrames : 8 frames
Codec ID : V_MPEG4/ISO/AVC
Duration : 1h 48mn
Bit rate : 1 900 Kbps
Width : 720 pixels
Height : 304 pixels
Display aspect ratio : 2.35:1
Frame rate mode : Constant
Frame rate : 25.000 fps
Color space : YUV
Chroma subsampling : 4:2:0
Bit depth : 8 bits
Scan type : Progressive
Bits/(Pixel*Frame) : 0.347
Stream size : 1.41 GiB (89%)
Title : Amico, stammi lontano almeno un palmo
Writing library : x264 core 125 r2208 d9d2288
Encoding settings : cabac=1 / ref=8 / deblock=1:-1:-1 / analyse=0x3:0x133 / me=umh / subme=9 / psy=1 / psy_rd=1.00:0.10 / mixed_ref=1 / me_range=32 / chroma_me=1 / trellis=2 / 8x8dct=1 / cqm=0 / deadzone=21,11 / fast_pskip=0 / chroma_qp_offset=-3 / threads=6 / lookahead_threads=1 / sliced_threads=0 / nr=0 / decimate=1 / interlaced=0 / bluray_compat=0 / constrained_intra=0 / bframes=3 / b_pyramid=2 / b_adapt=2 / b_bias=0 / direct=3 / weightb=1 / open_gop=0 / weightp=2 / keyint=250 / keyint_min=25 / scenecut=40 / intra_refresh=0 / rc_lookahead=60 / rc=2pass / mbtree=1 / bitrate=1900 / ratetol=1.0 / qcomp=0.60 / qpmin=10 / qpmax=51 / qpstep=4 / cplxblur=20.0 / qblur=0.5 / ip_ratio=1.40 / aq=1:1.00
Language : Italian
Default : Yes
Forced : No
Audio
ID : 2
Format : AC-3
Format/Info : Audio Coding 3
Mode extension : CM (complete main)
Format settings, Endianness : Big
Codec ID : A_AC3
Duration : 1h 48mn
Bit rate mode : Constant
Bit rate : 192 Kbps
Channel(s) : 2 channels
Channel positions : Front: L R
Sampling rate : 48.0 KHz
Bit depth : 16 bits
Compression mode : Lossy
Stream size : 149 MiB (9%)
Title : Профессиональный (одноголосый)
Language : Russian
Default : Yes
Forced : No
Скриншоты:                    
Вне форума [Профиль] [ЛС]
Похожие темы
Форум Тема Автор Торрент Отв. Посл. сообщение
./templates/default/images/folder_sticky.gif Системы для бизнеса 1С Предприятие 7.7 Платформа, Конфигурации Varius
0 | 1

8 | 9508

95

2013-12-04 19:26
president128 Последнее
./templates/default/images/folder_sticky.gif © Системы для бизнеса 1C:Предприятие 8.1, 8.2, 8,3 Технологические платформы + Типовые конфигурации Varius
2 | 0

10 | 11886

186

2014-01-01 18:24
2099996 Последнее
./templates/default/images/folder_dl.gif Компьютерная литература М.Г.Радченко, Е.Ю.Хрусталева | Архитектура и работа с данными «1С: Предприятия 8.2» [2011] [PDF] UndegraundMen
1 | 0

0 | 488

20

2013-03-04 22:27
UndegraundMen Последнее
./templates/default/images/folder_dl.gif © Системы для бизнеса 1С:Бухгалтерия предприятия (2.0) (x86+x64) [2014 г.] [RUS] Omen
1 | 0

0 | 1359

45

2014-09-18 12:36
Omen Последнее
./templates/default/images/folder_dl.gif Обучающее видео Специалист | Тактическая периметровая защита предприятия (2013) PCRec Omen
1 | 0

0 | 667

22

2015-01-01 15:18
Omen Последнее
./templates/default/images/folder_dl.gif © Системы для бизнеса 1С:Бухгалтерия предприятия (3.0) (x86+x64) [2012-2015 г.] [RUS] Omen
1 | 0

0 | 1406

54

2015-02-16 20:42
Omen Последнее
./templates/default/images/folder_dl.gif Кулинария Владимир Печерских, Григорий Бельцев | Внедрение ERP-решений на платформе 1С. Предприятие 8 (2015) [PDF] Omen
1 | 0

0 | 445

12

2015-05-08 09:59
Omen Последнее
./templates/default/images/folder_dl.gif Обучающее видео Учебный центр 1C | Разработка мобильных приложений в системе 1С Предприятие 8.3 (2015) PCRec [H.264] Varius
1 | 0

0 | 561

46

2015-07-08 23:14
Varius Последнее
./templates/default/images/folder_dl.gif Системы для бизнеса 1С:Предприятие 8.2.19.130 / 8.3.7.1845 (x86+x64) [2015 г.] [Ru] Region_13
1 | 0

3 | 2855

60

2016-07-10 14:42
Dracula Последнее
Показать сообщения:    
Ответить на тему

Текущее время: Сегодня 17:35

Часовой пояс: GMT + 3



Вы не можете начинать темы
Вы не можете отвечать на сообщения
Вы не можете редактировать свои сообщения
Вы не можете удалять свои сообщения
Вы не можете голосовать в опросах
Вы не можете прикреплять файлы к сообщениям
Вы не можете скачивать файлы