Сегодня идет свободное скачивание без начисления Download

Тонкий человек / The Thin Man (1934) WEB-DL (В.С. Ван Дайк) (Комедия, Драма, Криминал, 720p)

Ответить на тему
 
Автор
Сообщение

Omen ®

Стаж: 4 года 1 месяц

Сообщений: 194394

Торрент-статистика

Пост 20-Июн-2013 15:54

[Цитировать]

Тонкий человек
The Thin Man
-«A laugh tops every thrilling moment!»
Русское название: Тонкий человек
Оригинальное название: The Thin Man
Выпущено: США, Metro-Goldwyn-Mayer (MGM)
Год выпуска: 1934
Жанр: Комедия, Драма, Криминал
Описание фильма:
Уильям Пауэлл ('Как выйти замуж за миллионера'), Мирна Лой ('Лучшие годы нашей жизни'), Морин О'Салливан ('Гордость и предубеждение') в детективе Ви. С. Ван Дайка 'Тонкий человек'. В канун рождества убита секретарша богатого изобретателя Ваната. Все подозрения падают на него потому, что полиция не может найти профессора в городе. Девушка по имени Дороти Винант приходит в дом к сыщику Нику Чарльзу, человеку, который уже четвертый год отошел от дел. Дороти рассказывает, что это она убила секретаршу, но детектив не верит ей. Он понимает, что девушка пробует взять всю вину на себя. Решив помочь несчастной он, бросив все дела, начинает раскручивать очень запутанный клубок фактов и обстоятельств.
Режиссер: В.С. Ван Дайк
Актеры: Уильям Пауэлл, Мирна Лой, Морин О’Салливан, Нат Пендлтон, Минна Гомбелл, Портер Холл, Генри Вэдсворт, Уильям Генри, Харольд Хубер, Сизар Ромеро
Продолжительность: 01:39:43
Перевод: Авторский (одноголосый закадровый) - Либергал
Язык субтитров: Русские, английские
Вид субтитров: Вшитые

Дата мировой премьеры: 25 мая 1934
Дата выхода DVD релиза: 27 сентября 2012, «New Dream media»

Видеокодек: MPEG-4 AVC/H.264
Битрейт видео: ~4148 Кбит/с
Размер кадра: 966x720
Качество видео: WEB-DL (720p)
Аудио 1: AC3 Русский 2.0 / 48 kHz / 192 kbps / 16-bit Одноголосый закадровый
Аудио 1: AC3 Английский 1.0 / 48 kHz / 192 kbps / 16-bit Оригинал

MediaInfo

Общее
Уникальный идентификатор : 233744741026131126066543301101842357215 (0xAFD9997FF1C3F6A79CF5B8A22AEC5BDF)
Полное имя : C:\Xvid4PSP\Тонкий человек.1934.WEB-DL 720p.mkv
Формат : Matroska
Версия формата : Version 4 / Version 2
Размер файла : 2,94 Гбайт
Продолжительность : 1 ч. 30 м.
Общий поток : 4624 Кбит/сек
Название фильма : The Thin Man (1934)
Дата кодирования : UTC 2013-06-16 08:38:32
Программа кодирования : mkvmerge v6.2.0 ('Promised Land') built on Apr 28 2013 12:22:01
Библиотека кодирования : libebml v1.3.0 + libmatroska v1.4.0
Видео
Идентификатор : 1
Формат : AVC
Формат/Информация : Advanced Video Codec
Профиль формата : [url=mailto:[email protected]][email protected][/url]
Параметр CABAC формата : Нет
Параметр ReFrames формата : 2 кадра
Идентификатор кодека : V_MPEG4/ISO/AVC
Продолжительность : 1 ч. 30 м.
Битрейт : 4148 Кбит/сек
Ширина : 966 пикселей
Высота : 720 пикселей
Соотношение сторон : 4:3
Режим частоты кадров : Постоянный
Частота кадров : 23,976 кадра/сек
Цветовое пространство : YUV
Субдискретизация насыщенности : 4:2:0
Битовая глубина : 8 бит
Тип развёртки : Прогрессивная
Бит/(Пиксели*Кадры) : 0.249
Размер потока : 2,63 Гбайт (90%)
Язык : English
Default : Да
Forced : Нет
Основные цвета : BT.709
Характеристики трансфера : BT.709
Коэффициенты матрицы : BT.709
Аудио #1
Идентификатор : 2
Формат : AC-3
Формат/Информация : Audio Coding 3
Расширение режима : CM (complete main)
Параметр Endianness формата : Big
Идентификатор кодека : A_AC3
Продолжительность : 1 ч. 30 м.
Вид битрейта : Постоянный
Битрейт : 192 Кбит/сек
Каналы : 2 канала
Расположение каналов : Front: L R
Частота : 48,0 КГц
Битовая глубина : 16 бит
Метод сжатия : С потерями
Размер потока : 125 Мбайт (4%)
Язык : Russian
Default : Да
Forced : Нет
Аудио #2
Идентификатор : 3
Формат : AC-3
Формат/Информация : Audio Coding 3
Расширение режима : CM (complete main)
Параметр Endianness формата : Big
Идентификатор кодека : A_AC3
Продолжительность : 1 ч. 30 м.
Вид битрейта : Постоянный
Битрейт : 192 Кбит/сек
Каналы : 1 канал
Расположение каналов : Front: C
Частота : 48,0 КГц
Битовая глубина : 16 бит
Метод сжатия : С потерями
Размер потока : 125 Мбайт (4%)
Язык : English
Default : Нет
Forced : Нет
Текст #1
Идентификатор : 4
Формат : UTF-8
Идентификатор кодека : S_TEXT/UTF8
Идентификатор кодека/Информация : UTF-8 Plain Text
Заголовок : JayBee
Язык : Russian
Default : Нет
Forced : Нет
Текст #2
Идентификатор : 5
Формат : UTF-8
Идентификатор кодека : S_TEXT/UTF8
Идентификатор кодека/Информация : UTF-8 Plain Text
Язык : English
Default : Нет
Forced : Нет
Меню
00:00:00.000 : en:Credits
00:00:50.000 : en:Wedding Plans
00:04:34.000 : en:Missing Bonds
00:07:03.000 : en:Julia And Her Men
00:10:36.000 : en:Nick Tends Bar
00:13:10.000 : en:Nora Catches Up
00:15:47.000 : en:Word Of Wynant
00:20:51.000 : en:Woman Murdered
00:24:47.000 : en:Piece Of Evidence
00:27:50.000 : en:Join The Party
00:31:22.000 : en:Family Gathering
00:36:20.000 : en:Such Lovely People
00:37:47.000 : en:Morelli Drops In
00:41:45.000 : en:In Nora's Drawers
00:45:07.000 : en:Shooting Gallery
00:47:22.000 : en:Nick Has A Hunch
00:50:08.000 : en:Suspect Update
00:52:14.000 : en:Nunheim Talks Too Much
00:56:43.000 : en:Evidence To Light
01:00:53.000 : en:Wynant's Shop
01:05:40.000 : en:The Drop On Tanner
01:09:05.000 : en:The Net For Wynant
01:12:47.000 : en:Suspects Party
01:15:52.000 : en:The Guests Arrive
01:20:01.000 : en:Serving Nuts And Fish
01:23:13.000 : en:Nick Makes Sense
01:26:33.000 : en:There's Your Murderer
01:28:51.000 : en:Two Happy Couples
Скриншоты:
         
Вне форума [Профиль] [ЛС]
Показать сообщения:    
Ответить на тему

Текущее время: Сегодня 15:09

Часовой пояс: GMT + 3



Вы не можете начинать темы
Вы не можете отвечать на сообщения
Вы не можете редактировать свои сообщения
Вы не можете удалять свои сообщения
Вы не можете голосовать в опросах
Вы не можете прикреплять файлы к сообщениям
Вы не можете скачивать файлы