Сегодня идет свободное скачивание без начисления Download

Большой куш / Snatch (Гай Ричи) (Триллер, Криминал, Комедия, 2000) BDRip

Ответить на тему
 
Автор
Сообщение

Omen ®

Стаж: 4 года 8 месяцев

Сообщений: 190649

Торрент-статистика

Пост 20-Июн-2013 16:49

[Цитировать]

Большой куш / Snatch- Русское название: Большой куш
Оригинальное название: Snatch
Год выпуска: 2000
Жанр: Триллер, Криминал, Комедия
Описание фильма:
Четырехпалый Френки должен был переправить краденный алмаз из Англии в США своему боссу Эви. Но вместо этого герой попадает в эпицентр больших неприятностей. Сделав ставку на подпольном боксерском поединке, Френки попадает в круговорот весьма нежелательных событий.
Вокруг героя и его груза разворачивается сложная интрига с участием множества колоритных персонажей лондонского дна — русского гангстера, троих незадачливых грабителей, хитрого боксера и угрюмого громилы грозного мафиози. Каждый норовит в одиночку сорвать Большой Куш.
Режиссер: Гай Ричи
Актеры: Джейсон Стэтхэм, Брэд Питт, Бенисио Дель Торо, Стивен Грэм, Алан Форд, Деннис Фарина, Раде Шербеджия, Винни Джонс, Джейсон Флеминг, Майк Рейд
Продолжительность: 01:42:46
Перевод: 2х Многоголосый закадровый, 5х Одноголосый закадровый, Двухголосый закадровый
Релиз группа: Hellywood
Язык субтитров: Русские, английские (полные)
Вид субтитров: Отдельным файлом (*.srt)

Дата мировой премьеры: 23 августа 2000
Дата российской премьеры: 10 мая 2001
Дата выхода Blu-Ray релиза: 29 октября 2009
Видеокодек: Xvid
Битрейт видео: ~1865 Кбит/сек
Размер кадра: 720*384 (1.85:1)
Качество видео: BDRip
Аудиокодек: AC3 5.1
Аудио #1: 384 Кбит/сек, 48.0 КГц, 16 бит, 6 каналов, AC3 (MVO, Киномания)
Аудио #2: 384 Кбит/сек, 48.0 КГц, 16 бит, 6 каналов, AC3 (MVO, Первый канал)
Аудио #3: 384 Кбит/сек, 48.0 КГц, 16 бит, 6 каналов, AC3 (ENG)
Аудио (отдельно): 448 Кбит/сек, 48.0 КГц, 16 бит, 6 каналов, AC3 (AVO, Гаврилов)
Аудио (отдельно): 384 Кбит/сек, 48.0 КГц, 16 бит, 6 каналов, AC3 (AVO, Гоблин)
Аудио (отдельно): 384 Кбит/сек, 48.0 КГц, 16 бит, 6 каналов, AC3 (AVO, Гоблин. Новый)
Аудио (отдельно): 384 Кбит/сек, 48.0 КГц, 16 бит, 6 каналов, AC3 (AVO, Рябов)
Аудио (отдельно): 384 Кбит/сек, 48.0 КГц, 16 бит, 6 каналов, AC3 (AVO, Живов)
Аудио (отдельно): 384 Кбит/сек, 48.0 КГц, 16 бит, 6 каналов, AC3 (DVO, Гланц и Королёва )

MediaInfo

Код:
Формат                                   : AVI
Формат/Информация                        : Audio Video Interleave
Профиль формата                          : OpenDML
Размер файла                             : 2,18 Гбайт
Продолжительность                        : 1 ч. 42 м.
Общий поток                              : 3041 Кбит/сек
Название фильма                          : Большой куш / Snatch. (2000) BDRip
Режиссёр                                 : b1nd
Программа кодирования                    : VirtualDubMod 1.5.10.2 (build 2542/release)
Примечание                               : ICQ: 438740964
Видео
Идентификатор                            : 0
Формат                                   : MPEG-4 Visual
Профиль формата                          : Advanced [email protected]
Параметр BVOP формата                    : 1
Параметр QPel формата                    : Нет
Параметр GMC формата                     : Без точки перехода
Параметр матрицы формата                 : Выборочная
Идентификатор кодека                     : XVID
Идентификатор кодека/Подсказка           : XviD
Продолжительность                        : 1 ч. 42 м.
Битрейт                                  : 1865 Кбит/сек
Ширина                                   : 720 пикселей
Высота                                   : 384 пикселя
Соотношение сторон                       : 1,85:1
Частота кадров                           : 23,976 кадра/сек
Цветовое пространство                    : YUV
Субдискретизация насыщенности            : 4:2:0
Битовая глубина                          : 8 бит
Тип развёртки                            : Прогрессивная
Метод сжатия                             : С потерями
Бит/(Пиксели*Кадры)                      : 0.281
Размер потока                            : 1,34 Гбайт (61%)
Библиотека кодирования                   : XviD 64
Аудио #1
Идентификатор                            : 1
Формат                                   : AC-3
Формат/Информация                        : Audio Coding 3
Расширение режима                        : CM (complete main)
Параметр Endianness формата              : Big
Идентификатор кодека                     : 2000
Продолжительность                        : 1 ч. 42 м.
Вид битрейта                             : Постоянный
Битрейт                                  : 384 Кбит/сек
Каналы                                   : 6 каналов
Расположение каналов                     : Front: L C R, Side: L R, LFE
Частота                                  : 48,0 КГц
Битовая глубина                          : 16 бит
Метод сжатия                             : С потерями
Размер потока                            : 282 Мбайт (13%)
Выравнивание                             : Разделение по промежуткам
Продолжительность промежутка             : 42  мс. (1,00 видеокадр)
Время предзагрузки промежутка            : 500  мс.
Аудио #2
Идентификатор                            : 2
Формат                                   : AC-3
Формат/Информация                        : Audio Coding 3
Расширение режима                        : CM (complete main)
Параметр Endianness формата              : Big
Идентификатор кодека                     : 2000
Продолжительность                        : 1 ч. 42 м.
Вид битрейта                             : Постоянный
Битрейт                                  : 384 Кбит/сек
Каналы                                   : 6 каналов
Расположение каналов                     : Front: L C R, Side: L R, LFE
Частота                                  : 48,0 КГц
Битовая глубина                          : 16 бит
Метод сжатия                             : С потерями
Размер потока                            : 282 Мбайт (13%)
Выравнивание                             : Разделение по промежуткам
Продолжительность промежутка             : 42  мс. (1,00 видеокадр)
Время предзагрузки промежутка            : 500  мс.
Аудио #3
Идентификатор                            : 3
Формат                                   : AC-3
Формат/Информация                        : Audio Coding 3
Расширение режима                        : CM (complete main)
Параметр Endianness формата              : Big
Идентификатор кодека                     : 2000
Продолжительность                        : 1 ч. 42 м.
Вид битрейта                             : Постоянный
Битрейт                                  : 384 Кбит/сек
Каналы                                   : 6 каналов
Расположение каналов                     : Front: L C R, Side: L R, LFE
Частота                                  : 48,0 КГц
Битовая глубина                          : 16 бит
Метод сжатия                             : С потерями
Размер потока                            : 282 Мбайт (13%)
Выравнивание                             : Разделение по промежуткам
Продолжительность промежутка             : 42  мс. (1,00 видеокадр)
Время предзагрузки промежутка            : 500  мс.
Общее
Полное имя                               : B:\Фильмы\Bolshoy.Kush.2000.RUS.TRiPLE.BDRip.AC3.XviD\Bolshoy.Kush.2000.RUS.TRiPLE.BDRip.AC3.XviD.AVO.Gavrilov.ac3
Формат                                   : AC-3
Формат/Информация                        : Audio Coding 3
Размер файла                             : 329 Мбайт
Продолжительность                        : 1 ч. 42 м.
Режим общего битрейта                    : Постоянный
Общий поток                              : 448 Кбит/сек
Аудио
Формат                                   : AC-3
Формат/Информация                        : Audio Coding 3
Расширение режима                        : CM (complete main)
Параметр Endianness формата              : Big
Продолжительность                        : 1 ч. 42 м.
Вид битрейта                             : Постоянный
Битрейт                                  : 448 Кбит/сек
Каналы                                   : 6 каналов
Расположение каналов                     : Front: L C R, Side: L R, LFE
Частота                                  : 48,0 КГц
Битовая глубина                          : 16 бит
Метод сжатия                             : С потерями
Размер потока                            : 329 Мбайт (100%)
Общее
Полное имя                               : B:\Фильмы\Bolshoy.Kush.2000.RUS.TRiPLE.BDRip.AC3.XviD\Bolshoy.Kush.2000.RUS.TRiPLE.BDRip.AC3.XviD.AVO.Goblin.ac3
Формат                                   : AC-3
Формат/Информация                        : Audio Coding 3
Размер файла                             : 282 Мбайт
Продолжительность                        : 1 ч. 42 м.
Режим общего битрейта                    : Постоянный
Общий поток                              : 384 Кбит/сек
Аудио
Формат                                   : AC-3
Формат/Информация                        : Audio Coding 3
Расширение режима                        : CM (complete main)
Параметр Endianness формата              : Big
Продолжительность                        : 1 ч. 42 м.
Вид битрейта                             : Постоянный
Битрейт                                  : 384 Кбит/сек
Каналы                                   : 6 каналов
Расположение каналов                     : Front: L C R, Side: L R, LFE
Частота                                  : 48,0 КГц
Битовая глубина                          : 16 бит
Метод сжатия                             : С потерями
Размер потока                            : 282 Мбайт (100%)
Общее
Полное имя                               : B:\Фильмы\Bolshoy.Kush.2000.RUS.TRiPLE.BDRip.AC3.XviD\Bolshoy.Kush.2000.RUS.TRiPLE.BDRip.AC3.XviD.AVO.Goblin.new.ac3
Формат                                   : AC-3
Формат/Информация                        : Audio Coding 3
Размер файла                             : 282 Мбайт
Продолжительность                        : 1 ч. 42 м.
Режим общего битрейта                    : Постоянный
Общий поток                              : 384 Кбит/сек
Аудио
Формат                                   : AC-3
Формат/Информация                        : Audio Coding 3
Расширение режима                        : CM (complete main)
Параметр Endianness формата              : Big
Продолжительность                        : 1 ч. 42 м.
Вид битрейта                             : Постоянный
Битрейт                                  : 384 Кбит/сек
Каналы                                   : 6 каналов
Расположение каналов                     : Front: L C R, Side: L R, LFE
Частота                                  : 48,0 КГц
Битовая глубина                          : 16 бит
Метод сжатия                             : С потерями
Размер потока                            : 282 Мбайт (100%)
Общее
Полное имя                               : B:\Фильмы\Bolshoy.Kush.2000.RUS.TRiPLE.BDRip.AC3.XviD\Bolshoy.Kush.2000.RUS.TRiPLE.BDRip.AC3.XviD.AVO.Ryabov.ac3
Формат                                   : AC-3
Формат/Информация                        : Audio Coding 3
Размер файла                             : 282 Мбайт
Продолжительность                        : 1 ч. 42 м.
Режим общего битрейта                    : Постоянный
Общий поток                              : 384 Кбит/сек
Аудио
Формат                                   : AC-3
Формат/Информация                        : Audio Coding 3
Расширение режима                        : CM (complete main)
Параметр Endianness формата              : Big
Продолжительность                        : 1 ч. 42 м.
Вид битрейта                             : Постоянный
Битрейт                                  : 384 Кбит/сек
Каналы                                   : 6 каналов
Расположение каналов                     : Front: L C R, Side: L R, LFE
Частота                                  : 48,0 КГц
Битовая глубина                          : 16 бит
Метод сжатия                             : С потерями
Размер потока                            : 282 Мбайт (100%)
Общее
Полное имя                               : B:\Фильмы\Bolshoy.Kush.2000.RUS.TRiPLE.BDRip.AC3.XviD\Bolshoy.Kush.2000.RUS.TRiPLE.BDRip.AC3.XviD.AVO.Zhivov.ac3
Формат                                   : AC-3
Формат/Информация                        : Audio Coding 3
Размер файла                             : 282 Мбайт
Продолжительность                        : 1 ч. 42 м.
Режим общего битрейта                    : Постоянный
Общий поток                              : 384 Кбит/сек
Аудио
Формат                                   : AC-3
Формат/Информация                        : Audio Coding 3
Расширение режима                        : CM (complete main)
Параметр Endianness формата              : Big
Продолжительность                        : 1 ч. 42 м.
Вид битрейта                             : Постоянный
Битрейт                                  : 384 Кбит/сек
Каналы                                   : 6 каналов
Расположение каналов                     : Front: L C R, Side: L R, LFE
Частота                                  : 48,0 КГц
Битовая глубина                          : 16 бит
Метод сжатия                             : С потерями
Размер потока                            : 282 Мбайт (100%)
Общее
Полное имя                               : B:\Фильмы\Bolshoy.Kush.2000.RUS.TRiPLE.BDRip.AC3.XviD\Bolshoy.Kush.2000.RUS.TRiPLE.BDRip.AC3.XviD.DVO.Glantz.Koroleva.ac3
Формат                                   : AC-3
Формат/Информация                        : Audio Coding 3
Размер файла                             : 282 Мбайт
Продолжительность                        : 1 ч. 42 м.
Режим общего битрейта                    : Постоянный
Общий поток                              : 384 Кбит/сек
Аудио
Формат                                   : AC-3
Формат/Информация                        : Audio Coding 3
Расширение режима                        : CM (complete main)
Параметр Endianness формата              : Big
Продолжительность                        : 1 ч. 42 м.
Вид битрейта                             : Постоянный
Битрейт                                  : 384 Кбит/сек
Каналы                                   : 6 каналов
Расположение каналов                     : Front: L C R, Side: L R, LFE
Частота                                  : 48,0 КГц
Битовая глубина                          : 16 бит
Метод сжатия                             : С потерями
Размер потока                            : 282 Мбайт (100%)
Скриншоты:
       
Вне форума [Профиль] [ЛС]
Похожие темы
Форум Тема Автор Торрент Отв. Посл. сообщение
./templates/default/images/folder_dl.gif Обучающее видео Управление небольшими проектами Бонни Байэфора / Managing Small Projects with Bonnie Biafore [2013, менеджмент, HDRip, ENG] (Видеоурок) Omen
1 | 0

0 | 580

4

2015-07-30 00:00
Omen Последнее
./templates/default/images/folder_dl.gif Обучающее видео Как зарабатывать больше $2000 в месяц на youtube не снимая видео / How I Make $2000 A Month on YouTube With No Filming [2015, заработок в интернете, HDRip, RUS] (Видеоурок) Omen
1 | 0

0 | 356

4

2016-01-13 15:00
Omen Последнее
./templates/default/images/folder_dl.gif Комиксы, Графика, Wallpapers, Арт Bellingham L., Bybee J.A., Rogers B.G. / Беллингхэм Л., Байби Ж.Э., Роджерс Б.Г. - More Food Styling for Photographers & Stylists / Больше дизайна еды для фотографов и стилистов [2012, PDF, ENG] Omen
1 | 0

0 | 193

1

2016-10-18 01:00
Omen Последнее
./templates/default/images/folder_dl.gif Домоводство, Сад, Огород, Хобби Галина Кизима | Большая энциклопедия садовода-огородника от А до Я (2017) [FB2] [email protected]
2 | 0

0 | 691

8

2017-02-16 19:40
[email protected] Последнее
./templates/default/images/folder_dl.gif Медицина и Здоровье Лариса Кузьмина | Большой лечебник древних знахарей. Миллион народных способов лечения (2016) [FB2] [email protected]
5 | 0

0 | 5595

7

2017-02-28 22:26
[email protected] Последнее
./templates/default/images/folder_dl.gif Домоводство, Сад, Огород, Хобби Анастасия Колпакова, Татьяна Плотникова | Большая энциклопедия виноградаря (2017) [FB2, RTF] [email protected]
1 | 0

0 | 10232

5

2017-03-25 09:21
[email protected] Последнее
./templates/default/images/folder_dl.gif Фантастика, фэнтези, ужасы, мистика Валерий Большаков | Супердиверсант Сталина. И один в поле воин (2017) [FB2] [email protected]
1 | 0

0 | 7652

5

2017-05-14 22:44
[email protected] Последнее
Показать сообщения:    
Ответить на тему

Текущее время: Сегодня 15:42

Часовой пояс: GMT + 3



Вы не можете начинать темы
Вы не можете отвечать на сообщения
Вы не можете редактировать свои сообщения
Вы не можете удалять свои сообщения
Вы не можете голосовать в опросах
Вы не можете прикреплять файлы к сообщениям
Вы не можете скачивать файлы