Today is a free download without charge Download

Воровайки - 23 Альбома/Дискография (2001-2013) [FLAC|Lossless]

Reply to topic
 
Author
Message

UndegraundMen ®

Longevity: 6 years 4 months

Posts: 25148

Торрент-статистика

Post 21-Jun-2013 04:52

[Quote]

Воровайки - 23 Альбома/Дискография (2001-2013)- Год издания: 2001-2013
Страна: Россия
Жанр: Шансон
Продолжительность: 21:23:26
Кодек: Flac
Битрейт: lossless
Тип рипа: image+.cue
Треклист:-Альбомы:
2001 - Первый альбом
2001 - Второй альбом
2002 - Третий альбом
2002 - Наколочки - Remix'ы
2002 - Чёрные цветы (4-й альбом)
2003 - Мачо
2003 - Держи вора (5-й альбом)
2005 - 6-й альбом
2005 - Воровайки & DJ Вася - Remix'ы
2005 - На лазурном берегу (Легенды жанра)
2006 - Седьмой альбом
2006 - Подруги (8-й альбом)
2007 - Акустический альбом
2007 - Украденная любовь (9-й альбом)
2008 - Роза ветров (Легенды жанра)
2009 - Х-Десятый альбом
2009 - XI
2010 - TANGO: Новое и Лучшее
2010 - Воровайки и друзья: Москва - Торонто
2011 - Полярная звезда
2011 - Grand Collection
2011 - Романсы
2013 - Московские улочки ХII-

Альбомы:

2001 - Первый альбом

Лейбл: Classic Company
Каталог №: CC CD 03/01
Пpoдолжительность: 00:45:51
Тpeклист:
01. Вороваечки (3:34)
02. Хоп, мусорок (3:17)
03. Роза ветров (3:00)
04. Птица-лебедь (4:11)
05. Сирота (5:33)
06. Привет, Ростов (3:33)
07. Детки-паечки (3:37)
08. Суд присяжных (4:00)
09. Мамочка-воровочка (3:54)
10. Утомлённая солнцем (2:43)
11. Не быкуй, фраерок (3:20)
12. Я обниму мою любовь (5:09)

Отчёт ЕАС:

Код:
Exact Audio Copy V1.0 beta 1 from 15. November 2010
Отчёт EAC об извлечении, выполненном 13. декабря 2010, 1:50
Воровайки / Первый альбом
Дисковод: TEAC    DV-W516GB   Adapter: 0  ID: 0
Режим чтения                 : Достоверность
Использование точного потока : Да
Отключение кэша аудио        : Да
Использование указателей C2  : Нет
Коррекция смещения при чтении                     : 12
Способность читать области Lead-in и Lead-out     : Нет
Заполнение пропущенных сэмплов тишиной            : Да
Удаление блоков с тишиной в начале и конце        : Нет
При вычислениях CRC использовались нулевые сэмплы : Да
Интерфейс                                         : Встроенный Win32-интерфейс для Win NT/2000
Выходной формат : Внутренние WAV-операции
Формат сэмплов  : 44.100 Гц; 16 бит; стерео
TOC извлечённого CD
     Трек |   Старт  | Длительность | Начальный сектор | Конечный сектор
    ---------------------------------------------------------------------
       1  |  0:00.00 |    3:34.02   |           0      |      16051
       2  |  3:34.02 |    3:16.47   |       16052      |      30798
       3  |  6:50.49 |    3:00.37   |       30799      |      44335
       4  |  9:51.11 |    4:11.22   |       44336      |      63182
       5  | 14:02.33 |    5:32.44   |       63183      |      88126
       6  | 19:35.02 |    3:32.44   |       88127      |     104070
       7  | 23:07.46 |    3:37.24   |      104071      |     120369
       8  | 26:44.70 |    4:00.27   |      120370      |     138396
       9  | 30:45.22 |    3:53.50   |      138397      |     155921
      10  | 34:38.72 |    2:43.23   |      155922      |     168169
      11  | 37:22.20 |    3:19.61   |      168170      |     183155
      12  | 40:42.06 |    5:09.29   |      183156      |     206359
Характеристики диапазона извлечения и сообщения об ошибках
Выбранный диапазон
     Имя файла S:\CHANSON (А-Л)\Группа «Воровайки»\2001 - 1-й альбом\Воровайки - Первый альбом.wav
     Пиковый уровень 98.8 %
0.2 X
     Качество диапазона 99.9 %
     CRC теста 5F6BD451
     CRC копии 5F6BD451
     Копирование... OK
Ошибок не произошло
AccurateRip: сводка
Трек  1  нет в базе данных
Трек  2  нет в базе данных
Трек  3  нет в базе данных
Трек  4  нет в базе данных
Трек  5  нет в базе данных
Трек  6  нет в базе данных
Трек  7  нет в базе данных
Трек  8  нет в базе данных
Трек  9  нет в базе данных
Трек 10  нет в базе данных
Трек 11  нет в базе данных
Трек 12  нет в базе данных
Ни одного трека нет в базе AccurateRip
Конец отчёта
====  D0F2B88017A22D9A98ADC70ECB18DB8CD70F201DF878414350C9DA2EA1F91677 ====

Отчёт auCDtect Task manager:

Код:
-----------------------
DON'T MODIFY THIS FILE
-----------------------
PERFORMER: auCDtect Task Manager, ver. 1.6.0 RC1 build 1.6.0.1
Copyright (c) 2008-2010 y-soft. All rights reserved
http://y-soft.org
ANALYZER: auCDtect: CD records authenticity detector, version 0.8.2
Copyright (c) 2004 Oleg Berngardt. All rights reserved.
Copyright (c) 2004 Alexander Djourik. All rights reserved.
FILE: Воровайки - Первый альбом.flac
  Size: 356332803 Hash: B1F6F90045DB07F9DFAEE0E8097334BB Accuracy: -m0
  Conclusion: CDDA 100%
  Signature: D812687813F584B56654B30CBF6FC13F9859B015

2001 - Второй альбом

Лейбл: Classic Company
Каталог №: CC CD 49/01
Пpoдолжительность: 00:40:22
Тpeклист:
01. Мурки-воровайки (3:18)
02. На лазурном берегу (3:30)
03. Мама (3:30)
04. Колечко (3:08)
05. Гаси карманчики (3:03)
06. Ксюха+Витёк (5:27)
07. На малолетке (2:39)
08. Свобода (Гуляй моя душа) (2:57)
09. Не стреляйте (3:51)
10. Шухер Вася (2:47)
11. Осень (3:20)
12. Алёнка (2:53)

Отчёт ЕАС:

Код:
Exact Audio Copy V1.0 beta 3 from 29. August 2011
Отчёт EAC об извлечении, выполненном 25. декабря 2011, 18:54
Воровайки / Второй альбом
Дисковод: ASUS    DRW-24B3ST   Adapter: 1  ID: 1
Режим чтения                 : Достоверность
Использование точного потока : Да
Отключение кэша аудио        : Да
Использование указателей C2  : Нет
Коррекция смещения при чтении                     : 6
Способность читать области Lead-in и Lead-out     : Нет
Заполнение пропущенных сэмплов тишиной            : Да
Удаление блоков с тишиной в начале и конце        : Нет
При вычислениях CRC использовались нулевые сэмплы : Да
Интерфейс                                         : Встроенный Win32-интерфейс для Win NT/2000
Выходной формат : Внутренние WAV-операции
Формат сэмплов  : 44.100 Гц; 16 бит; стерео
TOC извлечённого CD
     Трек |   Старт  | Длительность | Начальный сектор | Конечный сектор
    ---------------------------------------------------------------------
       1  |  0:00.00 |    3:17.54   |           0      |      14828
       2  |  3:17.54 |    3:29.52   |       14829      |      30555
       3  |  6:47.31 |    3:30.19   |       30556      |      46324
       4  | 10:17.50 |    3:08.25   |       46325      |      60449
       5  | 13:26.00 |    3:03.22   |       60450      |      74196
       6  | 16:29.22 |    5:26.39   |       74197      |      98685
       7  | 21:55.61 |    2:38.43   |       98686      |     110578
       8  | 24:34.29 |    2:57.32   |      110579      |     123885
       9  | 27:31.61 |    3:51.16   |      123886      |     141226
      10  | 31:23.02 |    2:46.67   |      141227      |     153743
      11  | 34:09.69 |    3:19.40   |      153744      |     168708
      12  | 37:29.34 |    2:52.68   |      168709      |     181676
Характеристики диапазона извлечения и сообщения об ошибках
Выбранный диапазон
     Имя файла F:\Lossless\1. Шансон, Авторская и Военная песня\Русский шансон (А-Б-В-Г)\Воровайки - Дискография\2001 - Второй альбом\Воровайки - Второй альбом.wav
     Пиковый уровень 99.3 %
     Скорость извлечения 5.4 X
     Качество диапазона 100.0 %
     CRC теста F19E12E2
     CRC копии F19E12E2
     Копирование... OK
Ошибок не произошло
AccurateRip: сводка
Трек  1  : извлечено точно (доверие 1)  [F5757CC1]  (AR v2)
Трек  2  : извлечено точно (доверие 1)  [37A588C7]  (AR v2)
Трек  3  : извлечено точно (доверие 1)  [30E36486]  (AR v2)
Трек  4  : извлечено точно (доверие 1)  [BDD84219]  (AR v2)
Трек  5  : извлечено точно (доверие 1)  [071E30A9]  (AR v2)
Трек  6  : извлечено точно (доверие 1)  [0537DCA0]  (AR v2)
Трек  7  : извлечено точно (доверие 1)  [FD452EA0]  (AR v2)
Трек  8  : извлечено точно (доверие 1)  [1F93D908]  (AR v2)
Трек  9  : извлечено точно (доверие 1)  [F6C79D3D]  (AR v2)
Трек 10  : извлечено точно (доверие 1)  [D117DCEA]  (AR v2)
Трек 11  : извлечено точно (доверие 1)  [67922493]  (AR v2)
Трек 12  : извлечено точно (доверие 1)  [19B29ABB]  (AR v2)
Все треки извлечены точно
Конец отчёта
==== Контрольная сумма отчёта 2B46D8679274A8D18173A9F23F52B9B36420B18D4E7716EB4EEEC2510D559DBC ====

Отчёт auCDtect Task manager:

Код:
-----------------------
DON'T MODIFY THIS FILE
-----------------------
PERFORMER: auCDtect Task Manager, ver. 1.6.0 RC1 build 1.6.0.1
Copyright (c) 2008-2010 y-soft. All rights reserved
http://y-soft.org
ANALYZER: auCDtect: CD records authenticity detector, version 0.8.2
Copyright (c) 2004 Oleg Berngardt. All rights reserved.
Copyright (c) 2004 Alexander Djourik. All rights reserved.
FILE: Воровайки - Второй альбом.flac
  Size: 315688894 Hash: 1293C90D9487B7AD04F205EDA4C1B77A Accuracy: -m0
  Conclusion: CDDA 100%
  Signature: 68FA340F1726BB074C45641AF40D5555EDD70A52

2002 - Третий альбом

Лейбл: Classic Company
Каталог №: CC CD 12/02
Пpoдолжительность: 00:40:23
Тpeклист:
01. Форточки - замочки... (3:33)
02. Шмон (2:43)
03. Люблю, тоскую, скучаю (5:24)
04. Воля и неволя (2:42)
05. С Юга на Восток (3:20)
06. Пой мальчик, пой (3:42)
07. Вор (2:56)
08. Комсомольцы (3:02)
09. Моряк и стюардесса (3:18)
10. За последней чертой (3:42)
11. Эх, раз, еще раз (форточки - замочки 2) (2:34)
12. Все ерунда (3:27)

Отчёт ЕАС:

Код:
Exact Audio Copy V1.0 beta 3 from 29. August 2011
Отчёт EAC об извлечении, выполненном 25. декабря 2011, 19:58
Воровайки / Третий альбом
Дисковод: ASUS    DRW-24B3ST   Adapter: 1  ID: 1
Режим чтения                 : Достоверность
Использование точного потока : Да
Отключение кэша аудио        : Да
Использование указателей C2  : Нет
Коррекция смещения при чтении                     : 6
Способность читать области Lead-in и Lead-out     : Нет
Заполнение пропущенных сэмплов тишиной            : Да
Удаление блоков с тишиной в начале и конце        : Нет
При вычислениях CRC использовались нулевые сэмплы : Да
Интерфейс                                         : Встроенный Win32-интерфейс для Win NT/2000
Выходной формат : Внутренние WAV-операции
Формат сэмплов  : 44.100 Гц; 16 бит; стерео
TOC извлечённого CD
     Трек |   Старт  | Длительность | Начальный сектор | Конечный сектор
    ---------------------------------------------------------------------
       1  |  0:00.00 |    3:33.10   |           0      |      15984
       2  |  3:33.10 |    2:43.27   |       15985      |      28236
       3  |  6:16.37 |    5:24.19   |       28237      |      52555
       4  | 11:40.56 |    2:41.69   |       52556      |      64699
       5  | 14:22.50 |    3:20.20   |       64700      |      79719
       6  | 17:42.70 |    3:41.48   |       79720      |      96342
       7  | 21:24.43 |    2:55.58   |       96343      |     109525
       8  | 24:20.26 |    3:01.42   |      109526      |     123142
       9  | 27:21.68 |    3:17.72   |      123143      |     137989
      10  | 30:39.65 |    3:41.53   |      137990      |     154617
      11  | 34:21.43 |    2:34.36   |      154618      |     166203
      12  | 36:56.04 |    3:27.00   |      166204      |     181728
      13  | 42:55.04 |   14:26.07   |      193129      |     258085
Характеристики диапазона извлечения и сообщения об ошибках
Выбранный диапазон
     Имя файла F:\Lossless\1. Шансон, Авторская и Военная песня\Русский шансон (А-Б-В-Г)\Воровайки - Дискография\2002 - Третий альбом\Воровайки - Третий альбом.wav
     Пиковый уровень 98.2 %
     Скорость извлечения 5.3 X
     Качество диапазона 100.0 %
     CRC теста F2D1A0A4
     CRC копии F2D1A0A4
     Копирование... OK
Ошибок не произошло
AccurateRip: сводка
Трек  1  отсутствует в базе данных
Трек  2  отсутствует в базе данных
Трек  3  отсутствует в базе данных
Трек  4  отсутствует в базе данных
Трек  5  отсутствует в базе данных
Трек  6  отсутствует в базе данных
Трек  7  отсутствует в базе данных
Трек  8  отсутствует в базе данных
Трек  9  отсутствует в базе данных
Трек 10  отсутствует в базе данных
Трек 11  отсутствует в базе данных
Трек 12  отсутствует в базе данных
Ни одного трека нет в базе AccurateRip
Конец отчёта
==== Контрольная сумма отчёта 465DB9E610A05589B74E8CA6FE9C36F46F29537C6E1829EFCAC8E6C53C281D53 ====

Отчёт auCDtect Task manager:

Код:
-----------------------
DON'T MODIFY THIS FILE
-----------------------
PERFORMER: auCDtect Task Manager, ver. 1.6.0 RC1 build 1.6.0.1
Copyright (c) 2008-2010 y-soft. All rights reserved
http://y-soft.org
ANALYZER: auCDtect: CD records authenticity detector, version 0.8.2
Copyright (c) 2004 Oleg Berngardt. All rights reserved.
Copyright (c) 2004 Alexander Djourik. All rights reserved.
FILE: Воровайки - Третий альбом.flac
  Size: 299420291 Hash: D4B67D0B090A8DD83AA713D4B63380CD Accuracy: -m0
  Conclusion: CDDA 100%
  Signature: FC4C147410610222BC0CFA9F70A04D1465610400

2002 - Наколочки - Remix'ы

Лейбл: Classic Company
Каталог №: CC CD 50/02
Пpoдолжительность: 00:46:46
Тpeклист:
01. Роза ветров (4:38)
02. Мамочка-воровочка (5:29)
03. Колечко (4:39)
04. Не стреляйте (4:50)
05. Вороваечки (4:31)
06. Гаси карманчики (4:09)
07. Наколочки (4:56)
08. Суд присяжных (5:13)
09. Детки-паечки (4:06)
10. За последней чертой (4:16)

Отчёт ЕАС:

Код:
Exact Audio Copy V1.0 beta 3 from 29. August 2011
Отчёт EAC об извлечении, выполненном 16. августа 2012, 22:29
Воровайки / Наколочки
Дисковод: ASUS    DRW-1814BLT   Adapter: 2  ID: 0
Режим чтения                 : Достоверность
Использование точного потока : Да
Отключение кэша аудио        : Да
Использование указателей C2  : Нет
Коррекция смещения при чтении                     : 6
Способность читать области Lead-in и Lead-out     : Нет
Заполнение пропущенных сэмплов тишиной            : Да
Удаление блоков с тишиной в начале и конце        : Нет
При вычислениях CRC использовались нулевые сэмплы : Да
Интерфейс                                         : Встроенный Win32-интерфейс для Win NT/2000
Выходной формат : Внутренние WAV-операции
Формат сэмплов  : 44.100 Гц; 16 бит; стерео
TOC извлечённого CD
     Трек |   Старт  | Длительность | Начальный сектор | Конечный сектор
    ---------------------------------------------------------------------
       1  |  0:00.00 |    4:38.29   |           0      |      20878
       2  |  4:38.29 |    5:29.02   |       20879      |      45555
       3  | 10:07.31 |    4:38.55   |       45556      |      66460
       4  | 14:46.11 |    4:49.58   |       66461      |      88193
       5  | 19:35.69 |    4:31.25   |       88194      |     108543
       6  | 24:07.19 |    4:09.10   |      108544      |     127228
       7  | 28:16.29 |    4:55.58   |      127229      |     149411
       8  | 33:12.12 |    5:13.08   |      149412      |     172894
       9  | 38:25.20 |    4:05.52   |      172895      |     191321
      10  | 42:30.72 |    4:15.38   |      191322      |     210484
Характеристики диапазона извлечения и сообщения об ошибках
Выбранный диапазон
     Имя файла F:\Lossless\1. Шансон, Авторская и Военная песня\Русский шансон (А-Б-В-Г)\Воровайки - Дискография\2002 - Воровайки - Наколочки - Remix'ы\Воровайки - Наколочки.wav
     Пиковый уровень 100.0 %
     Скорость извлечения 8.0 X
     Качество диапазона 100.0 %
     CRC теста A1A23697
     CRC копии A1A23697
     Копирование... OK
Ошибок не произошло
AccurateRip: сводка
Трек  1  отсутствует в базе данных
Трек  2  отсутствует в базе данных
Трек  3  отсутствует в базе данных
Трек  4  отсутствует в базе данных
Трек  5  отсутствует в базе данных
Трек  6  отсутствует в базе данных
Трек  7  отсутствует в базе данных
Трек  8  отсутствует в базе данных
Трек  9  отсутствует в базе данных
Трек 10  отсутствует в базе данных
Ни одного трека нет в базе AccurateRip
Конец отчёта
==== Контрольная сумма отчёта 1BA442C2BF9A6FFA248BDF8E0B182BFA821FB96F3351C86C611DC98EB8983415 ====

Отчёт auCDtect Task manager:

Код:
-----------------------
DON'T MODIFY THIS FILE
-----------------------
PERFORMER: auCDtect Task Manager, ver. 1.6.0 RC1 build 1.6.0.1
Copyright (c) 2008-2010 y-soft. All rights reserved
http://y-soft.org
ANALYZER: auCDtect: CD records authenticity detector, version 0.8.2
Copyright (c) 2004 Oleg Berngardt. All rights reserved.
Copyright (c) 2004 Alexander Djourik. All rights reserved.
FILE: Воровайки - Наколочки.flac
  Size: 340769949 Hash: AE26037BAF8FEC7498520715FA016CDE Accuracy: -m0
  Conclusion: CDDA 99%
  Signature: EB7FE08B78C3A0BA8A1E4334A2C999E07B89560C

2002 - Чёрные цветы (4-й альбом)

Лейбл: Classic Company
Каталог №: CC CD 70/02
Пpoдолжительность: 00:52:26
Тpeклист:
01. Амнистия (3:31)
02. Рукавички (3:33)
03. Пей, гуляй, веселись (3:07)
04. На краю земли (3:36)
05. Солт-лейк сити (3:36)
06. Отец (4:15)
07. Ромашка (3:31)
08. Подвенечное белое платье (3:36)
09. Кто шалава? (3:07)
10. Краденые встречи (3:19)
11. Демон (3:50)
12. Кума (3:05)
13. Свадьба в зоне (3:25)
14. Чёрные цветы (3:16)
15. Вор с воровочкой (3:37)

Отчёт ЕАС:

Код:
Exact Audio Copy V1.0 beta 3 from 29. August 2011
Отчёт EAC об извлечении, выполненном 25. декабря 2011, 20:49
Воровайки / Черные цветы
Дисковод: ASUS    DRW-24B3ST   Adapter: 1  ID: 1
Режим чтения                 : Достоверность
Использование точного потока : Да
Отключение кэша аудио        : Да
Использование указателей C2  : Нет
Коррекция смещения при чтении                     : 6
Способность читать области Lead-in и Lead-out     : Нет
Заполнение пропущенных сэмплов тишиной            : Да
Удаление блоков с тишиной в начале и конце        : Нет
При вычислениях CRC использовались нулевые сэмплы : Да
Интерфейс                                         : Встроенный Win32-интерфейс для Win NT/2000
Выходной формат : Внутренние WAV-операции
Формат сэмплов  : 44.100 Гц; 16 бит; стерео
TOC извлечённого CD
     Трек |   Старт  | Длительность | Начальный сектор | Конечный сектор
    ---------------------------------------------------------------------
       1  |  0:00.00 |    3:30.51   |           0      |      15800
       2  |  3:30.51 |    3:33.18   |       15801      |      31793
       3  |  7:03.69 |    3:07.22   |       31794      |      45840
       4  | 10:11.16 |    3:36.03   |       45841      |      62043
       5  | 13:47.19 |    3:36.34   |       62044      |      78277
       6  | 17:23.53 |    4:15.21   |       78278      |      97423
       7  | 21:38.74 |    3:31.36   |       97424      |     113284
       8  | 25:10.35 |    3:36.29   |      113285      |     129513
       9  | 28:46.64 |    3:06.61   |      129514      |     143524
      10  | 31:53.50 |    3:19.17   |      143525      |     158466
      11  | 35:12.67 |    3:49.73   |      158467      |     175714
      12  | 39:02.65 |    3:05.32   |      175715      |     189621
      13  | 42:08.22 |    3:24.58   |      189622      |     204979
      14  | 45:33.05 |    3:15.58   |      204980      |     219662
      15  | 48:48.63 |    3:36.68   |      219663      |     235930
Характеристики диапазона извлечения и сообщения об ошибках
Выбранный диапазон
     Имя файла F:\Lossless\1. Шансон, Авторская и Военная песня\Русский шансон (А-Б-В-Г)\Воровайки - Дискография\2002 - Чёрные цветы (4-й альбом)\Воровайки - Черные цветы.wav
     Пиковый уровень 100.0 %
     Скорость извлечения 5.6 X
     Качество диапазона 99.9 %
     CRC теста 10FF8A69
     CRC копии 10FF8A69
     Копирование... OK
Ошибок не произошло
AccurateRip: сводка
Трек  1  : извлечено точно (доверие 1)  [18271132]  (AR v1)
Трек  2  : извлечено точно (доверие 1)  [08515D45]  (AR v1)
Трек  3  : извлечено точно (доверие 1)  [921FC8E1]  (AR v1)
Трек  4  : извлечено точно (доверие 1)  [C6F6E551]  (AR v1)
Трек  5  : извлечено точно (доверие 1)  [640CB357]  (AR v1)
Трек  6  : извлечено точно (доверие 1)  [B0957C66]  (AR v1)
Трек  7  : извлечено точно (доверие 1)  [4F09F488]  (AR v1)
Трек  8  : извлечено точно (доверие 1)  [E1DD9133]  (AR v1)
Трек  9  : извлечено точно (доверие 1)  [F2056149]  (AR v1)
Трек 10  : извлечено точно (доверие 1)  [1BB6D63B]  (AR v1)
Трек 11  : извлечено точно (доверие 1)  [450A5751]  (AR v1)
Трек 12  : извлечено точно (доверие 1)  [E88B3B5A]  (AR v1)
Трек 13  : извлечено точно (доверие 1)  [03186EA0]  (AR v1)
Трек 14  : извлечено точно (доверие 1)  [4716A6A6]  (AR v1)
Трек 15  : извлечено точно (доверие 1)  [3CC6ACBF]  (AR v1)
Все треки извлечены точно
Конец отчёта
==== Контрольная сумма отчёта 0F751F3CAA1342732ABE2F6B49B633DC300C23357C0C4FD49BBF8D5FA6C3F66A ====

Отчёт auCDtect Task manager:

Код:
-----------------------
DON'T MODIFY THIS FILE
-----------------------
PERFORMER: auCDtect Task Manager, ver. 1.6.0 RC1 build 1.6.0.1
Copyright (c) 2008-2010 y-soft. All rights reserved
http://y-soft.org
ANALYZER: auCDtect: CD records authenticity detector, version 0.8.2
Copyright (c) 2004 Oleg Berngardt. All rights reserved.
Copyright (c) 2004 Alexander Djourik. All rights reserved.
FILE: Воровайки - Черные цветы.flac
  Size: 365619426 Hash: 94D3A1A5CF0C5B391F937FBCD0682C23 Accuracy: -m0
  Conclusion: CDDA 100%
  Signature: 253B2CB913483F67C2535ED44A54E9E9F8CA455C

2003 - Мачо

Лейбл: Classic Company
Каталог №: CC CD 45/03
Пpoдолжительность: 01:15:13
Тpeклист:
01. Мачо (3:55)
02. Хоп, мусорок (3:16)
03. Чёрные цветы (3:15)
04. Шмон (2:41)
05. Ксюха + Витёк (5:26)
06. Воровайки (3:34)
07. Отец (4:15)
08. Форточки-замочки (3:31)
09. На краю земли (3:36)
10. На лазурном берегу (3:29)
11. Всё ерунда (3:28)
12. Не стреляйте (3:51)
13. Солт-Лейк-Сити (3:34)
14. Алёшка (3:33)
15. Мурки-Воровайки (3:18)
16. Я обниму свою любовь (5:11)
17. Кто шалава? (3:07)
18. Гаси карманчики (3:03)
19. Не быкуй, фраерок (remix DJ Вася) (4:03)
20. Хоп, Мусорок (remix DJ Вася) (5:06)

Отчёт ЕАС:

Код:
Exact Audio Copy V1.0 beta 3 from 29. August 2011
Отчёт EAC об извлечении, выполненном 10. сентября 2012, 10:59
Воровайки / Мачо
Дисковод: ASUS    DRW-24B3ST   Adapter: 1  ID: 1
Режим чтения                 : Достоверность
Использование точного потока : Да
Отключение кэша аудио        : Да
Использование указателей C2  : Нет
Коррекция смещения при чтении                     : 6
Способность читать области Lead-in и Lead-out     : Нет
Заполнение пропущенных сэмплов тишиной            : Да
Удаление блоков с тишиной в начале и конце        : Нет
При вычислениях CRC использовались нулевые сэмплы : Да
Интерфейс                                         : Встроенный Win32-интерфейс для Win NT/2000
Выходной формат : Внутренние WAV-операции
Формат сэмплов  : 44.100 Гц; 16 бит; стерео
TOC извлечённого CD
     Трек |   Старт  | Длительность | Начальный сектор | Конечный сектор
    ---------------------------------------------------------------------
       1  |  0:02.00 |    3:55.22   |         150      |      17796
       2  |  3:57.22 |    3:16.32   |       17797      |      32528
       3  |  7:13.54 |    3:15.31   |       32529      |      47184
       4  | 10:29.10 |    2:40.71   |       47185      |      59255
       5  | 13:10.06 |    5:26.19   |       59256      |      83724
       6  | 18:36.25 |    3:33.46   |       83725      |      99745
       7  | 22:09.71 |    4:15.21   |       99746      |     118891
       8  | 26:25.17 |    3:30.55   |      118892      |     134696
       9  | 29:55.72 |    3:36.03   |      134697      |     150899
      10  | 33:32.00 |    3:29.18   |      150900      |     166592
      11  | 37:01.18 |    3:28.15   |      166593      |     182207
      12  | 40:29.33 |    3:50.67   |      182208      |     199524
      13  | 44:20.25 |    3:34.32   |      199525      |     215606
      14  | 47:54.57 |    3:33.03   |      215607      |     231584
      15  | 51:27.60 |    3:17.40   |      231585      |     246399
      16  | 54:45.25 |    5:10.50   |      246400      |     269699
      17  | 59:56.00 |    3:06.62   |      269700      |     283711
      18  | 63:02.62 |    3:03.25   |      283712      |     297461
      19  | 66:06.12 |    4:02.74   |      297462      |     315685
      20  | 70:09.11 |    5:06.02   |      315686      |     338637
Характеристики диапазона извлечения и сообщения об ошибках
Выбранный диапазон
     Имя файла F:\Lossless\1. Шансон, Авторская и Военная песня\Русский шансон (А-Б-В-Г)\Воровайки - Дискография\2003 - Воровайки - Мачо\Воровайки - Мачо.wav
     Пиковый уровень 100.0 %
     Скорость извлечения 6.6 X
     Качество диапазона 100.0 %
     CRC теста 52AF1169
     CRC копии 52AF1169
     Копирование... OK
Ошибок не произошло
AccurateRip: сводка
Трек  1  : извлечено точно (доверие 2)  [64D58E22]  (AR v1)
Трек  2  : извлечено точно (доверие 1)  [7886A77A]  (AR v1)
Трек  3  : извлечено точно (доверие 1)  [381B72DA]  (AR v1)
Трек  4  : извлечено точно (доверие 1)  [589AE620]  (AR v1)
Трек  5  : извлечено точно (доверие 1)  [6F264563]  (AR v1)
Трек  6  : извлечено точно (доверие 1)  [12CC83AE]  (AR v1)
Трек  7  : извлечено точно (доверие 1)  [4A90467A]  (AR v1)
Трек  8  : извлечено точно (доверие 1)  [0FAEEEC9]  (AR v1)
Трек  9  : извлечено точно (доверие 1)  [9F9CAF5C]  (AR v1)
Трек 10  : извлечено точно (доверие 1)  [7BF13D8E]  (AR v1)
Трек 11  : извлечено точно (доверие 1)  [5B8C882D]  (AR v1)
Трек 12  : извлечено точно (доверие 1)  [3D9C3D1F]  (AR v1)
Трек 13  : извлечено точно (доверие 1)  [6E231D50]  (AR v1)
Трек 14  : извлечено точно (доверие 1)  [6CE27CB0]  (AR v1)
Трек 15  : извлечено точно (доверие 1)  [7E0E85A9]  (AR v1)
Трек 16  : извлечено точно (доверие 1)  [72E98EC2]  (AR v1)
Трек 17  : извлечено точно (доверие 1)  [833BFDCF]  (AR v1)
Трек 18  : извлечено точно (доверие 1)  [7714E480]  (AR v1)
Трек 19  : извлечено точно (доверие 1)  [C44FD55C]  (AR v1)
Трек 20  : извлечено точно (доверие 1)  [DD533666]  (AR v1)
Все треки извлечены точно
Конец отчёта
==== Контрольная сумма отчёта 3E288EC4A58654D96DFCA6F96719314B9F48F35A33F7E10C19F9C92E4182A675 ====

Отчёт auCDtect Task manager:

Код:
-----------------------
DON'T MODIFY THIS FILE
-----------------------
PERFORMER: auCDtect Task Manager, ver. 1.6.0 RC1 build 1.6.0.1
Copyright (c) 2008-2010 y-soft. All rights reserved
http://y-soft.org
ANALYZER: auCDtect: CD records authenticity detector, version 0.8.2
Copyright (c) 2004 Oleg Berngardt. All rights reserved.
Copyright (c) 2004 Alexander Djourik. All rights reserved.
FILE: Воровайки - Мачо.flac
  Size: 556582433 Hash: 317F45850419E6C1D50E9C0B2E4C4F37 Accuracy: -m0
  Conclusion: CDDA 100%
  Signature: 1D914AE24BD1BD598FA16856C88C412C555A103A

2003 - Держи вора (5-й альбом)

Лейбл: Classic Company
Каталог №: CC CD 62/03
Пpoдолжительность: 00:45:48
Тpeклист:
01. Бен Ладен и Буш (3:22)
02. Чебуреки (3:22)
03. Держи вора (3:00)
04. Журавли над зоной (4:02)
05. Федя (3:11)
06. Молодой вор (5:17)
07. Сирота казанская (4:29)
08. Мачо (3:55)
09. Как мне жить без тебя (4:37)
10. Что девчонкам надо? (3:31)
11. Сумочки-карманчики (3:36)
12. Я буду ждать весну (3:27)

Отчёт ЕАС:

Код:
Exact Audio Copy V1.0 beta 3 from 29. August 2011
Отчёт EAC об извлечении, выполненном 26. декабря 2011, 14:06
Воровайки / Держи вора
Дисковод: ASUS    DRW-24B3ST   Adapter: 1  ID: 1
Режим чтения                 : Достоверность
Использование точного потока : Да
Отключение кэша аудио        : Да
Использование указателей C2  : Нет
Коррекция смещения при чтении                     : 6
Способность читать области Lead-in и Lead-out     : Нет
Заполнение пропущенных сэмплов тишиной            : Да
Удаление блоков с тишиной в начале и конце        : Нет
При вычислениях CRC использовались нулевые сэмплы : Да
Интерфейс                                         : Встроенный Win32-интерфейс для Win NT/2000
Выходной формат : Внутренние WAV-операции
Формат сэмплов  : 44.100 Гц; 16 бит; стерео
TOC извлечённого CD
     Трек |   Старт  | Длительность | Начальный сектор | Конечный сектор
    ---------------------------------------------------------------------
       1  |  0:00.00 |    3:21.38   |           0      |      15112
       2  |  3:21.38 |    3:22.36   |       15113      |      30298
       3  |  6:43.74 |    3:00.33   |       30299      |      43831
       4  |  9:44.32 |    4:01.59   |       43832      |      61965
       5  | 13:46.16 |    3:10.39   |       61966      |      76254
       6  | 16:56.55 |    5:16.69   |       76255      |     100023
       7  | 22:13.49 |    4:28.53   |      100024      |     120176
       8  | 26:42.27 |    3:54.72   |      120177      |     137798
       9  | 30:37.24 |    4:37.00   |      137799      |     158573
      10  | 35:14.24 |    3:30.47   |      158574      |     174370
      11  | 38:44.71 |    3:36.14   |      174371      |     190584
      12  | 42:21.10 |    3:26.48   |      190585      |     206082
Характеристики диапазона извлечения и сообщения об ошибках
Выбранный диапазон
     Имя файла F:\Lossless\1. Шансон, Авторская и Военная песня\Русский шансон (А-Б-В-Г)\Воровайки - Дискография\2003 - Держи вора (5-й альбом)\Воровайки - Держи вора.wav
     Пиковый уровень 100.0 %
     Скорость извлечения 5.5 X
     Качество диапазона 100.0 %
     CRC теста B16C0779
     CRC копии B16C0779
     Копирование... OK
Ошибок не произошло
AccurateRip: сводка
Трек  1  : извлечено точно (доверие 1)  [16117211]  (AR v1)
Трек  2  : извлечено точно (доверие 1)  [15EC9905]  (AR v1)
Трек  3  : извлечено точно (доверие 1)  [9F809EA7]  (AR v1)
Трек  4  : извлечено точно (доверие 1)  [8074FA43]  (AR v1)
Трек  5  : извлечено точно (доверие 1)  [3028B70C]  (AR v1)
Трек  6  : извлечено точно (доверие 1)  [8D615BCA]  (AR v1)
Трек  7  : извлечено точно (доверие 1)  [C7D77369]  (AR v1)
Трек  8  : извлечено точно (доверие 1)  [FF285E1A]  (AR v1)
Трек  9  : извлечено точно (доверие 1)  [ABEEA2A3]  (AR v1)
Трек 10  : извлечено точно (доверие 1)  [A2BC113C]  (AR v1)
Трек 11  : извлечено точно (доверие 1)  [4E6BE5D3]  (AR v1)
Трек 12  : извлечено точно (доверие 1)  [47B0947A]  (AR v1)
Все треки извлечены точно
Конец отчёта
==== Контрольная сумма отчёта F9FC69A475DD679C26C5D12D3CC4859F7F8B6128A724CB323F79384C44697AC4 ====

Отчёт auCDtect Task manager:

Код:
-----------------------
DON'T MODIFY THIS FILE
-----------------------
PERFORMER: auCDtect Task Manager, ver. 1.6.0 RC1 build 1.6.0.1
Copyright (c) 2008-2010 y-soft. All rights reserved
http://y-soft.org
ANALYZER: auCDtect: CD records authenticity detector, version 0.8.2
Copyright (c) 2004 Oleg Berngardt. All rights reserved.
Copyright (c) 2004 Alexander Djourik. All rights reserved.
FILE: Воровайки - Держи вора.flac
  Size: 332872909 Hash: 6245D7CE9CE18693D86675634F1D8BC9 Accuracy: -m0
  Conclusion: CDDA 100%
  Signature: 09DA32BD3F97E2A30916213C36D8887654727285

2005 - Шестой альбом

Лейбл: Classic Company
Каталог №: CC CD 98/04
Пpoдолжительность: 00:42:36
Тpeклист:
01. Кавказская песня (3:10)
02. Клавочка (3:35)
03. Потерялись ключи (3:19)
04. Крошка-Тузик (3:50)
05. Весточки из далёких мест (3:35)
06. Карты правду говорили... (4:28)
07. Подполковник Семечкин (3:07)
08. День рождения (4:02)
09. Хлоп-лопатник, опачки (3:08)
10. От расссвета до заката (3:22)
11. Вертухайский-вертухай (3:02)
12. Разлука (3:59)

Отчёт ЕАС:

Код:
Exact Audio Copy V1.0 beta 3 from 29. August 2011
Отчёт EAC об извлечении, выполненном 26. декабря 2011, 14:47
Воровайки / 6
Дисковод: ASUS    DRW-24B3ST   Adapter: 1  ID: 1
Режим чтения                 : Достоверность
Использование точного потока : Да
Отключение кэша аудио        : Да
Использование указателей C2  : Нет
Коррекция смещения при чтении                     : 6
Способность читать области Lead-in и Lead-out     : Нет
Заполнение пропущенных сэмплов тишиной            : Да
Удаление блоков с тишиной в начале и конце        : Нет
При вычислениях CRC использовались нулевые сэмплы : Да
Интерфейс                                         : Встроенный Win32-интерфейс для Win NT/2000
Выходной формат : Внутренние WAV-операции
Формат сэмплов  : 44.100 Гц; 16 бит; стерео
TOC извлечённого CD
     Трек |   Старт  | Длительность | Начальный сектор | Конечный сектор
    ---------------------------------------------------------------------
       1  |  0:00.00 |    3:10.21   |           0      |      14270
       2  |  3:10.21 |    3:34.48   |       14271      |      30368
       3  |  6:44.69 |    3:18.51   |       30369      |      45269
       4  | 10:03.45 |    3:50.01   |       45270      |      62520
       5  | 13:53.46 |    3:34.54   |       62521      |      78624
       6  | 17:28.25 |    4:28.16   |       78625      |      98740
       7  | 21:56.41 |    3:07.06   |       98741      |     112771
       8  | 25:03.47 |    4:01.47   |      112772      |     130893
       9  | 29:05.19 |    3:07.50   |      130894      |     144968
      10  | 32:12.69 |    3:22.04   |      144969      |     160122
      11  | 35:34.73 |    3:02.00   |      160123      |     173772
      12  | 38:36.73 |    3:58.74   |      173773      |     191696
      13  | 45:07.72 |   13:33.51   |      203097      |     264122
Характеристики диапазона извлечения и сообщения об ошибках
Выбранный диапазон
     Имя файла F:\Lossless\1. Шансон, Авторская и Военная песня\Русский шансон (А-Б-В-Г)\Воровайки - Дискография\2005 - 6-й альбом\Воровайки - 6.wav
     Пиковый уровень 96.6 %
     Скорость извлечения 5.2 X
     Качество диапазона 99.9 %
     CRC теста 8C1F9107
     CRC копии 8C1F9107
     Копирование... OK
Ошибок не произошло
AccurateRip: сводка
Трек  1  отсутствует в базе данных
Трек  2  отсутствует в базе данных
Трек  3  отсутствует в базе данных
Трек  4  отсутствует в базе данных
Трек  5  отсутствует в базе данных
Трек  6  отсутствует в базе данных
Трек  7  отсутствует в базе данных
Трек  8  отсутствует в базе данных
Трек  9  отсутствует в базе данных
Трек 10  отсутствует в базе данных
Трек 11  отсутствует в базе данных
Трек 12  отсутствует в базе данных
Ни одного трека нет в базе AccurateRip
Конец отчёта
==== Контрольная сумма отчёта C0EDCEA91B8D358AAF6E7A03371EA9629342AD7E4980C746C3B62F726A486FA4 ====

Отчёт auCDtect Task manager:

Код:
-----------------------
DON'T MODIFY THIS FILE
-----------------------
PERFORMER: auCDtect Task Manager, ver. 1.6.0 RC1 build 1.6.0.1
Copyright (c) 2008-2010 y-soft. All rights reserved
http://y-soft.org
ANALYZER: auCDtect: CD records authenticity detector, version 0.8.2
Copyright (c) 2004 Oleg Berngardt. All rights reserved.
Copyright (c) 2004 Alexander Djourik. All rights reserved.
FILE: Воровайки - 6.flac
  Size: 304264942 Hash: 652B250CA5A104DEC0DFEF54E736840A Accuracy: -m0
  Conclusion: CDDA 100%
  Signature: B224452383F2950406A0CC4EDA91CFD0B4F3BB54

2005 - Воровайки & DJ Вася - Remix'ы

Лейбл: Classic Company
Каталог №: CC CD 05/05
Пpoдолжительность: 00:46:18
Тpeклист:
01. Воровайки & DJ Вася - Весточки из далеких мест (Radio Mix) (4:37)
02. DJ Вася & Воровайки Feat. DJ Баба Шура - Шмон (Remix) (3:28)
03. DJ Вася & Воровайки Feat. БумеR - Как мне жить без тебя? (Radio Mix) (5:08)
04. Воровайки & DJ Вася - Комсомольцы (Bennasi Mix) (4:04)
05. Воровайки & DJ Вася - Краденные встречи (Radio Mix) (3:38)
06. Воровайки & DJ Вася - Утомленная солнцем (Remix) (3:31)
07. Воровайки & DJ Вася - Бен Ладен и Буш (Arabian Mix) (5:17)
08. DJ Вася & Воровайки Feat. БумеR - С Юга на Восток (Radio Mix) (4:28)
09. Воровайки & DJ Вася - Кто шалава? (Remix) (3:22)
10. Воровайки & DJ Вася - Хоп, мусорок (Christmas Mix) (5:09)
11. DJ Вася & Воровайки Feat. DJ Баба Шура - Солт-лейк (Remix) (3:56)

Отчёт ЕАС:

Код:
Exact Audio Copy V1.0 beta 1 from 15. November 2010
Отчёт EAC об извлечении, выполненном 5. мая 2011, 21:32
Воровайки & DJ Вася / Remix'ы
Дисковод: TEAC    DV-W520GM   Adapter: 0  ID: 0
Режим чтения                 : Достоверность
Использование точного потока : Да
Отключение кэша аудио        : Да
Использование указателей C2  : Нет
Коррекция смещения при чтении                     : 6
Способность читать области Lead-in и Lead-out     : Нет
Заполнение пропущенных сэмплов тишиной            : Да
Удаление блоков с тишиной в начале и конце        : Нет
При вычислениях CRC использовались нулевые сэмплы : Да
Интерфейс                                         : Встроенный Win32-интерфейс для Win NT/2000
Выходной формат : Внутренние WAV-операции
Формат сэмплов  : 44.100 Гц; 16 бит; стерео
TOC извлечённого CD
     Трек |   Старт  | Длительность | Начальный сектор | Конечный сектор
    ---------------------------------------------------------------------
       1  |  0:00.00 |    4:34.70   |           0      |      20619
       2  |  4:34.70 |    3:25.40   |       20620      |      36034
       3  |  8:00.35 |    5:06.14   |       36035      |      58998
       4  | 13:06.49 |    4:01.41   |       58999      |      77114
       5  | 17:08.15 |    3:36.26   |       77115      |      93340
       6  | 20:44.41 |    3:29.09   |       93341      |     109024
       7  | 24:13.50 |    5:15.11   |      109025      |     132660
       8  | 29:28.61 |    4:25.67   |      132661      |     152602
       9  | 33:54.53 |    3:20.34   |      152603      |     167636
      10  | 37:15.12 |    5:07.36   |      167637      |     190697
      11  | 42:22.48 |    3:55.57   |      190698      |     208379
      12  | 48:50.30 |    4:56.60   |      219780      |     242039
Характеристики диапазона извлечения и сообщения об ошибках
Выбранный диапазон
     Имя файла S:\CHANSON (А-Л)\Группа «Воровайки»\2005 - Воровайки & DJ Вася - Remix'ы\Воровайки & DJ Вася - Remix'ы.wav
     Пиковый уровень 98.8 %
     Скорость извлечения 0.5 X
     Качество диапазона 99.9 %
     CRC теста 45A74C18
     CRC копии 45A74C18
     Копирование... OK
Ошибок не произошло
AccurateRip: сводка
Трек  1  отсутствует в базе данных
Трек  2  отсутствует в базе данных
Трек  3  отсутствует в базе данных
Трек  4  отсутствует в базе данных
Трек  5  отсутствует в базе данных
Трек  6  отсутствует в базе данных
Трек  7  отсутствует в базе данных
Трек  8  отсутствует в базе данных
Трек  9  отсутствует в базе данных
Трек 10  отсутствует в базе данных
Трек 11  отсутствует в базе данных
Ни одного трека нет в базе AccurateRip
Конец отчёта
==== Контрольная сумма отчёта D86460992F445BE8000965F0E52D402736C1ACAAE7817EB30B7282301EE9DE82 ====

Отчёт auCDtect Task manager:

Код:
-----------------------
DON'T MODIFY THIS FILE
-----------------------
PERFORMER: auCDtect Task Manager, ver. 1.6.0 RC1 build 1.6.0.1
Copyright (c) 2008-2010 y-soft. All rights reserved
http://y-soft.org
ANALYZER: auCDtect: CD records authenticity detector, version 0.8.2
Copyright (c) 2004 Oleg Berngardt. All rights reserved.
Copyright (c) 2004 Alexander Djourik. All rights reserved.
FILE: Воровайки & DJ Вася - Remix'ы.flac
  Size: 335523619 Hash: 33212AB30C695657E9FAED89270F0302 Accuracy: -m0
  Conclusion: CDDA 100%
  Signature: 227DA8269530869C12E5E1479F79FC629E8AD2D2

2005 - На лазурном берегу (Легенды жанра)

Лейбл: Classic Company
Каталог №: CC CD 043/05
Пpoдолжительность: 01:12:34
Тpeклист:
01. Хоп, Мусорок (3:16)
02. Бен Ладен и Буш (3:21)
03. Мурки - Воровайки (3:18)
04. Рукавички (3:33)
05. На лазурном берегу (3:29)
06. Хлоп - Лопатник, опачки (3:07)
07. Ксюха+Витек (5:26)
08. Форточки - Замочки (3:31)
09. Держи вора (3:00)
10. За последней чертой (3:39)
11. Вор с воровочкой (3:36)
12. Я обниму мою любовь (5:08)
13. Подполковник Семечкин (3:03)
14. Гаси карманчики (3:01)
15. Как мне жить без тебя (4:34)
16. Вороваечки (3:30)
17. Кавказская песня (3:05)
18. Журавли над зоной (3:55)
19. Что девочонкам надо (3:29)
20. Весточки из далёких мест (3:31)

Отчёт ЕАС:

Код:
Exact Audio Copy V0.99 prebeta 5 from 4. May 2009
Отчёт EAC об извлечении, выполненном 24. ноября 2010, 19:37
Воровайки / На лазурном берегу
Дисковод: ASUS    DRW-1814BLT   Adapter: 2  ID: 0
Режим чтения                 : Достоверность
Использование точного потока : Да
Отключение кэша аудио        : Да
Использование указателей C2  : Нет
Коррекция смещения при чтении                     : 6
Способность читать области Lead-in и Lead-out     : Нет
Заполнение пропущенных сэмплов тишиной            : Да
Удаление блоков с тишиной в начале и конце        : Нет
При вычислениях CRC использовались нулевые сэмплы : Да
Интерфейс                                         : Встроенный Win32-интерфейс для Win NT/2000
Выходной формат : Внутренние WAV-операции
Формат сэмплов  : 44.100 Гц; 16 бит; стерео
TOC извлечённого CD
     Трек |   Старт  | Длительность | Начальный сектор | Конечный сектор
    ---------------------------------------------------------------------
       1  |  0:00.00 |    3:16.30   |           0      |      14729
       2  |  3:16.30 |    3:21.21   |       14730      |      29825
       3  |  6:37.51 |    3:17.41   |       29826      |      44641
       4  |  9:55.17 |    3:33.03   |       44642      |      60619
       5  | 13:28.20 |    3:28.39   |       60620      |      76258
       6  | 16:56.59 |    3:07.35   |       76259      |      90318
       7  | 20:04.19 |    5:26.24   |       90319      |     114792
       8  | 25:30.43 |    3:30.68   |      114793      |     130610
       9  | 29:01.36 |    3:00.18   |      130611      |     144128
      10  | 32:01.54 |    3:39.12   |      144129      |     160565
      11  | 35:40.66 |    3:36.07   |      160566      |     176772
      12  | 39:16.73 |    5:08.37   |      176773      |     199909
      13  | 44:25.35 |    3:03.03   |      199910      |     213637
      14  | 47:28.38 |    3:01.06   |      213638      |     227218
      15  | 50:29.44 |    4:34.37   |      227219      |     247805
      16  | 55:04.06 |    3:29.62   |      247806      |     263542
      17  | 58:33.68 |    3:04.51   |      263543      |     277393
      18  | 61:38.44 |    3:55.01   |      277394      |     295019
      19  | 65:33.45 |    3:28.55   |      295020      |     310674
      20  | 69:02.25 |    3:31.20   |      310675      |     326519
Характеристики диапазона извлечения и сообщения об ошибках
Выбранный диапазон
     Имя файла C:\Воровайки - На лазурном берегу\Воровайки - На лазурном берегу.wav
     Пиковый уровень 100.0 %
     Качество диапазона 100.0 %
     CRC теста 37C1E6A5
     CRC копии 37C1E6A5
     Копирование... OK
Ошибок не произошло
AccurateRip: сводка
Трек  1  нет в базе данных
Трек  2  нет в базе данных
Трек  3  нет в базе данных
Трек  4  нет в базе данных
Трек  5  нет в базе данных
Трек  6  нет в базе данных
Трек  7  нет в базе данных
Трек  8  нет в базе данных
Трек  9  нет в базе данных
Трек 10  нет в базе данных
Трек 11  нет в базе данных
Трек 12  нет в базе данных
Трек 13  нет в базе данных
Трек 14  нет в базе данных
Трек 15  нет в базе данных
Трек 16  нет в базе данных
Трек 17  нет в базе данных
Трек 18  нет в базе данных
Трек 19  нет в базе данных
Трек 20  нет в базе данных
Ни одного трека нет в базе AccurateRip
Конец отчёта

Отчёт auCDtect Task manager:

Код:
-----------------------
DON'T MODIFY THIS FILE
-----------------------
PERFORMER: auCDtect Task Manager, ver. 1.6.0 RC1 build 1.6.0.1
Copyright (c) 2008-2010 y-soft. All rights reserved
http://y-soft.org
ANALYZER: auCDtect: CD records authenticity detector, version 0.8.2
Copyright (c) 2004 Oleg Berngardt. All rights reserved.
Copyright (c) 2004 Alexander Djourik. All rights reserved.
FILE: Воровайки - На лазурном берегу.flac
  Size: 536427640 Hash: FE36B51C430B75F80CD6D45DF4804190 Accuracy: -m0
  Conclusion: CDDA 100%
  Signature: 4647670030B319ED4C09876EAE4440E7CEBF02CD

2006 - Седьмой альбом

Лейбл: Classic Company
Каталог №: CC CD 03/06
Пpoдолжительность: 00:43:34
Тpeклист:
01. Алмазик (3:04)
02. Письмо Жириновскому (3:36)
03. Не уберегла (4:07)
04. Жизнь блатная (3:44)
05. Ветра и холода (3:52)
06. Проволока колючая (4:00)
07. Сашенька (2:57)
08. Я не верю (3:42)
09. Не воровка, не шалава (3:42)
10. Близкий - далекий (4:27)
11. Бутырка (3:07)
12. Зечки - тоже человечки (3:16)

Отчёт ЕАС:

Код:
Exact Audio Copy V1.0 beta 3 from 29. August 2011
Отчёт EAC об извлечении, выполненном 26. декабря 2011, 15:08
Воровайки / Седьмой альбом
Дисковод: ASUS    DRW-24B3ST   Adapter: 1  ID: 1
Режим чтения                 : Достоверность
Использование точного потока : Да
Отключение кэша аудио        : Да
Использование указателей C2  : Нет
Коррекция смещения при чтении                     : 6
Способность читать области Lead-in и Lead-out     : Нет
Заполнение пропущенных сэмплов тишиной            : Да
Удаление блоков с тишиной в начале и конце        : Нет
При вычислениях CRC использовались нулевые сэмплы : Да
Интерфейс                                         : Встроенный Win32-интерфейс для Win NT/2000
Выходной формат : Внутренние WAV-операции
Формат сэмплов  : 44.100 Гц; 16 бит; стерео
TOC извлечённого CD
     Трек |   Старт  | Длительность | Начальный сектор | Конечный сектор
    ---------------------------------------------------------------------
       1  |  0:00.00 |    3:04.04   |           0      |      13803
       2  |  3:04.04 |    3:35.71   |       13804      |      29999
       3  |  6:40.00 |    4:07.10   |       30000      |      48534
       4  | 10:47.10 |    3:44.29   |       48535      |      65363
       5  | 14:31.39 |    3:51.47   |       65364      |      82735
       6  | 18:23.11 |    3:59.73   |       82736      |     100733
       7  | 22:23.09 |    2:57.07   |      100734      |     114015
       8  | 25:20.16 |    3:41.46   |      114016      |     130636
       9  | 29:01.62 |    3:42.25   |      130637      |     147311
      10  | 32:44.12 |    4:26.59   |      147312      |     167320
      11  | 37:10.71 |    3:07.06   |      167321      |     181351
      12  | 40:18.02 |    3:16.22   |      181352      |     196073
Характеристики диапазона извлечения и сообщения об ошибках
Выбранный диапазон
     Имя файла F:\Lossless\1. Шансон, Авторская и Военная песня\Русский шансон (А-Б-В-Г)\Воровайки - Дискография\2006 - 7-й альбом\Воровайки - Седьмой альбом.wav
     Пиковый уровень 97.7 %
     Скорость извлечения 5.4 X
     Качество диапазона 100.0 %
     CRC теста EEA066A4
     CRC копии EEA066A4
     Копирование... OK
Ошибок не произошло
AccurateRip: сводка
Трек  1  отсутствует в базе данных
Трек  2  отсутствует в базе данных
Трек  3  отсутствует в базе данных
Трек  4  отсутствует в базе данных
Трек  5  отсутствует в базе данных
Трек  6  отсутствует в базе данных
Трек  7  отсутствует в базе данных
Трек  8  отсутствует в базе данных
Трек  9  отсутствует в базе данных
Трек 10  отсутствует в базе данных
Трек 11  отсутствует в базе данных
Трек 12  отсутствует в базе данных
Ни одного трека нет в базе AccurateRip
Конец отчёта
==== Контрольная сумма отчёта 664FDFDB5D8CAE0F314A0CA68D7F31599E5878187DAC41EEA32E439FABC4DEA9 ====

Отчёт auCDtect Task manager:

Код:
-----------------------
DON'T MODIFY THIS FILE
-----------------------
PERFORMER: auCDtect Task Manager, ver. 1.6.0 RC1 build 1.6.0.1
Copyright (c) 2008-2010 y-soft. All rights reserved
http://y-soft.org
ANALYZER: auCDtect: CD records authenticity detector, version 0.8.2
Copyright (c) 2004 Oleg Berngardt. All rights reserved.
Copyright (c) 2004 Alexander Djourik. All rights reserved.
FILE: Воровайки - Седьмой альбом.flac
  Size: 322132960 Hash: F2F98D015C822DE0181D16E0E5E9C9BB Accuracy: -m0
  Conclusion: MPEG 95%
  Signature: 7FE0044F035B637B463FB7D22DD1EBB3E4EF869F

Спектр:

 

2006 - Подруги (8-й альбом)

Лейбл: Classic Company
Каталог №: CC CD 33/06
Пpoдолжительность:
Тpeклист:
01. Воровайки, воровайки, воровайки (4:23)
02. Мусорёнок (3:06)
03. Пожизненный срок (4:25)
04. Конвой (4:14)
05. Подружка (3:49)
06. Фабрика звёзд (4:44)
07. Канарейка (4:43)
08. Народный суд (4:17)
09. Папаша (3:53)
10. Вовочка (3:42)
11. Мамины любовники (4:02)
12. Я молю (4:04)

Отчёт ЕАС:

Код:
Exact Audio Copy V1.0 beta 3 from 29. August 2011
Отчёт EAC об извлечении, выполненном 26. декабря 2011, 15:25
Воровайки / Подруги
Дисковод: ASUS    DRW-24B3ST   Adapter: 1  ID: 1
Режим чтения                 : Достоверность
Использование точного потока : Да
Отключение кэша аудио        : Да
Использование указателей C2  : Нет
Коррекция смещения при чтении                     : 6
Способность читать области Lead-in и Lead-out     : Нет
Заполнение пропущенных сэмплов тишиной            : Да
Удаление блоков с тишиной в начале и конце        : Нет
При вычислениях CRC использовались нулевые сэмплы : Да
Интерфейс                                         : Встроенный Win32-интерфейс для Win NT/2000
Выходной формат : Внутренние WAV-операции
Формат сэмплов  : 44.100 Гц; 16 бит; стерео
TOC извлечённого CD
     Трек |   Старт  | Длительность | Начальный сектор | Конечный сектор
    ---------------------------------------------------------------------
       1  |  0:00.00 |    4:23.01   |           0      |      19725
       2  |  4:23.01 |    3:05.58   |       19726      |      33658
       3  |  7:28.59 |    4:25.36   |       33659      |      53569
       4  | 11:54.20 |    4:13.50   |       53570      |      72594
       5  | 16:07.70 |    3:49.33   |       72595      |      89802
       6  | 19:57.28 |    4:44.07   |       89803      |     111109
       7  | 24:41.35 |    4:42.44   |      111110      |     132303
       8  | 29:24.04 |    4:16.42   |      132304      |     151545
       9  | 33:40.46 |    3:52.65   |      151546      |     169010
      10  | 37:33.36 |    3:41.57   |      169011      |     185642
      11  | 41:15.18 |    4:01.63   |      185643      |     203780
      12  | 45:17.06 |    4:03.71   |      203781      |     222076
Характеристики диапазона извлечения и сообщения об ошибках
Выбранный диапазон
     Имя файла F:\Lossless\1. Шансон, Авторская и Военная песня\Русский шансон (А-Б-В-Г)\Воровайки - Дискография\2006 - Подруги (8-й альбом)\Воровайки - Подруги.wav
     Пиковый уровень 97.7 %
     Скорость извлечения 6.1 X
     Качество диапазона 100.0 %
     CRC теста 14069D3A
     CRC копии 14069D3A
     Копирование... OK
Ошибок не произошло
AccurateRip: сводка
Трек  1  отсутствует в базе данных
Трек  2  отсутствует в базе данных
Трек  3  отсутствует в базе данных
Трек  4  отсутствует в базе данных
Трек  5  отсутствует в базе данных
Трек  6  отсутствует в базе данных
Трек  7  отсутствует в базе данных
Трек  8  отсутствует в базе данных
Трек  9  отсутствует в базе данных
Трек 10  отсутствует в базе данных
Трек 11  отсутствует в базе данных
Трек 12  отсутствует в базе данных
Ни одного трека нет в базе AccurateRip
Конец отчёта
==== Контрольная сумма отчёта 256C37AF5D3FE4BFF67732A44DD7800F72FEC0CC130E3FF63FFC0E00A0F2B694 ====

Отчёт auCDtect Task manager:

Код:
-----------------------
DON'T MODIFY THIS FILE
-----------------------
PERFORMER: auCDtect Task Manager, ver. 1.6.0 RC1 build 1.6.0.1
Copyright (c) 2008-2010 y-soft. All rights reserved
http://y-soft.org
ANALYZER: auCDtect: CD records authenticity detector, version 0.8.2
Copyright (c) 2004 Oleg Berngardt. All rights reserved.
Copyright (c) 2004 Alexander Djourik. All rights reserved.
FILE: Воровайки - Подруги.flac
  Size: 370546195 Hash: 91125D2A3FCD9E5C1069E1610340801F Accuracy: -m0
  Conclusion: CDDA 100%
  Signature: 30024AA417B17955889231BA42D6A9FF229A08FE

2007 - Акустический альбом

Лейбл: Classic Company
Каталог №: CC CD 14/07
Пpoдолжительность: 00:53:31
Тpeклист:
01. Монте - Карло (3:38)
02. Я буду ждать весну (4:03)
03. Папаша (3:30)
04. Хоп, мусорок (3:30)
05. Родные края (3:05)
06. Мама (3:55)
07. Хлоп - лопатник, опачки (2:51)
08. Я молю (полная версия) (5:18)
09. Бомжовочка (2:27)
10. Разлука (3:55)
11. Мамины любовники (4:06)
12. Потерялись ключи (3:17)
13. Сашенька (2:53)
14. Смазливые ребята (3:02)
15. Березы - тополя (дуэт с Ю. Алмазовым) (4:02)

Отчёт ЕАС:

Код:
Exact Audio Copy V1.0 beta 3 from 29. August 2011
Отчёт EAC об извлечении, выполненном 27. декабря 2011, 15:13
Воровайки / Акустический альбом
Дисковод: ASUS    DRW-24B3ST   Adapter: 1  ID: 1
Режим чтения                 : Достоверность
Использование точного потока : Да
Отключение кэша аудио        : Да
Использование указателей C2  : Нет
Коррекция смещения при чтении                     : 6
Способность читать области Lead-in и Lead-out     : Нет
Заполнение пропущенных сэмплов тишиной            : Да
Удаление блоков с тишиной в начале и конце        : Нет
При вычислениях CRC использовались нулевые сэмплы : Да
Интерфейс                                         : Встроенный Win32-интерфейс для Win NT/2000
Выходной формат : Внутренние WAV-операции
Формат сэмплов  : 44.100 Гц; 16 бит; стерео
TOC извлечённого CD
     Трек |   Старт  | Длительность | Начальный сектор | Конечный сектор
    ---------------------------------------------------------------------
       1  |  0:00.00 |    3:37.58   |           0      |      16332
       2  |  3:37.58 |    4:02.68   |       16333      |      34550
       3  |  7:40.51 |    3:29.47   |       34551      |      50272
       4  | 11:10.23 |    3:29.61   |       50273      |      66008
       5  | 14:40.09 |    3:05.35   |       66009      |      79918
       6  | 17:45.44 |    3:54.43   |       79919      |      97511
       7  | 21:40.12 |    2:50.59   |       97512      |     110320
       8  | 24:30.71 |    5:17.67   |      110321      |     134162
       9  | 29:48.63 |    2:26.71   |      134163      |     145183
      10  | 32:15.59 |    3:54.45   |      145184      |     162778
      11  | 36:10.29 |    4:05.74   |      162779      |     181227
      12  | 40:16.28 |    3:17.31   |      181228      |     196033
      13  | 43:33.59 |    2:52.62   |      196034      |     208995
      14  | 46:26.46 |    3:02.28   |      208996      |     222673
      15  | 49:28.74 |    4:01.40   |      222674      |     240788
Характеристики диапазона извлечения и сообщения об ошибках
Выбранный диапазон
     Имя файла F:\Lossless\1. Шансон, Авторская и Военная песня\Русский шансон (А-Б-В-Г)\Воровайки - Дискография\2007 - Акустический альбом\Воровайки - Акустический альбом.wav
     Пиковый уровень 100.0 %
     Скорость извлечения 6.2 X
     Качество диапазона 100.0 %
     CRC теста 17CB5145
     CRC копии 17CB5145
     Копирование... OK
Ошибок не произошло
AccurateRip: сводка
Трек  1  отсутствует в базе данных
Трек  2  отсутствует в базе данных
Трек  3  отсутствует в базе данных
Трек  4  отсутствует в базе данных
Трек  5  отсутствует в базе данных
Трек  6  отсутствует в базе данных
Трек  7  отсутствует в базе данных
Трек  8  отсутствует в базе данных
Трек  9  отсутствует в базе данных
Трек 10  отсутствует в базе данных
Трек 11  отсутствует в базе данных
Трек 12  отсутствует в базе данных
Трек 13  отсутствует в базе данных
Трек 14  отсутствует в базе данных
Трек 15  отсутствует в базе данных
Ни одного трека нет в базе AccurateRip
Конец отчёта
==== Контрольная сумма отчёта F1523FA413BD38CCFA3814A8C20BB4DBF08D3BC805B014E85478ED0D9D66CDE7 ====

Отчёт auCDtect Task manager:

Код:
-----------------------
DON'T MODIFY THIS FILE
-----------------------
PERFORMER: auCDtect Task Manager, ver. 1.6.0 RC1 build 1.6.0.1
Copyright (c) 2008-2010 y-soft. All rights reserved
http://y-soft.org
ANALYZER: auCDtect: CD records authenticity detector, version 0.8.2
Copyright (c) 2004 Oleg Berngardt. All rights reserved.
Copyright (c) 2004 Alexander Djourik. All rights reserved.
FILE: Воровайки - Акустический альбом.flac
  Size: 407911457 Hash: 09C9092A8F9B1E7EC97AE5D9313E5A07 Accuracy: -m0
  Conclusion: CDDA 99%
  Signature: 751FD4D63615F8E11C51FFEF8259E011DCF5511B

2007 - Украденная любовь (9-й альбом)

Лейбл: Classic Company
Каталог №: CC CD 23/07
Пpoдолжительность: 01:19:06
Тpeклист:
01. Украдення любовь (5:07)
02. Дочки-матери (3:54)
03. Больничка (4:07)
04. Слова (5:34)
05. Кумовская любовь (3:37)
06. Подвенечное белое платье 2 (3:24)
07. Дядя Паша (5:05)
08. Катюшин шарфик (feat. «Знак свыше») (7:06)
09. Как жить без милого? (3:50)
10. Старый Пидорчук (4:03)
11. Принцесса Турандот (4:11)
12. Края родные (Extended version) (3:04)
13. Я вернусь, моя мама (4:51)
14. Слова (Radio Version) (4:33)
15. Украденная любовь (Radio Version) (3:44)
16. Я буду долго ждать весну (Unplugged version) (4:01)
17. Grand Hit Mega Mix (8:56)

Отчёт ЕАС:

Код:
Exact Audio Copy V1.0 beta 3 from 29. August 2011
Отчёт EAC об извлечении, выполненном 27. декабря 2011, 15:34
Воровайки / Украденная любовь
Дисковод: ASUS    DRW-24B3ST   Adapter: 1  ID: 1
Режим чтения                 : Достоверность
Использование точного потока : Да
Отключение кэша аудио        : Да
Использование указателей C2  : Нет
Коррекция смещения при чтении                     : 6
Способность читать области Lead-in и Lead-out     : Нет
Заполнение пропущенных сэмплов тишиной            : Да
Удаление блоков с тишиной в начале и конце        : Нет
При вычислениях CRC использовались нулевые сэмплы : Да
Интерфейс                                         : Встроенный Win32-интерфейс для Win NT/2000
Выходной формат : Внутренние WAV-операции
Формат сэмплов  : 44.100 Гц; 16 бит; стерео
TOC извлечённого CD
     Трек |   Старт  | Длительность | Начальный сектор | Конечный сектор
    ---------------------------------------------------------------------
       1  |  0:00.00 |    5:07.16   |           0      |      23040
       2  |  5:07.16 |    3:54.24   |       23041      |      40614
       3  |  9:01.40 |    4:06.69   |       40615      |      59133
       4  | 13:08.34 |    5:34.03   |       59134      |      84186
       5  | 18:42.37 |    3:36.52   |       84187      |     100438
       6  | 22:19.14 |    3:24.20   |      100439      |     115758
       7  | 25:43.34 |    5:04.50   |      115759      |     138608
       8  | 30:48.09 |    7:06.31   |      138609      |     170589
       9  | 37:54.40 |    3:49.50   |      170590      |     187814
      10  | 41:44.15 |    4:02.43   |      187815      |     206007
      11  | 45:46.58 |    4:10.56   |      206008      |     224813
      12  | 49:57.39 |    3:03.42   |      224814      |     238580
      13  | 53:01.06 |    4:51.29   |      238581      |     260434
      14  | 57:52.35 |    4:32.74   |      260435      |     280908
      15  | 62:25.34 |    3:44.16   |      280909      |     297724
      16  | 66:09.50 |    4:00.68   |      297725      |     315792
      17  | 70:10.43 |    8:55.59   |      315793      |     355976
Характеристики диапазона извлечения и сообщения об ошибках
Выбранный диапазон
     Имя файла F:\Lossless\1. Шансон, Авторская и Военная песня\Русский шансон (А-Б-В-Г)\Воровайки - Дискография\2007 - Украденная любовь (9-й альбом)\Воровайки - Украденная любовь.wav
     Пиковый уровень 96.6 %
     Скорость извлечения 6.9 X
     Качество диапазона 100.0 %
     CRC теста C8CE1299
     CRC копии C8CE1299
     Копирование... OK
Ошибок не произошло
AccurateRip: сводка
Трек  1  : извлечено точно (доверие 4)  [D29D9047]  (AR v1)
Трек  2  : извлечено точно (доверие 4)  [667085A7]  (AR v1)
Трек  3  : извлечено точно (доверие 4)  [A184E831]  (AR v1)
Трек  4  : извлечено точно (доверие 4)  [FFAC4AB8]  (AR v1)
Трек  5  : извлечено точно (доверие 4)  [9A9185C8]  (AR v1)
Трек  6  : извлечено точно (доверие 4)  [010BBECD]  (AR v1)
Трек  7  : извлечено точно (доверие 4)  [0C72D512]  (AR v1)
Трек  8  : извлечено точно (доверие 4)  [EEFBF613]  (AR v1)
Трек  9  : извлечено точно (доверие 4)  [C11D6703]  (AR v1)
Трек 10  : извлечено точно (доверие 4)  [CB595758]  (AR v1)
Трек 11  : извлечено точно (доверие 4)  [0F9BC4EB]  (AR v1)
Трек 12  : извлечено точно (доверие 4)  [3E27B1BF]  (AR v1)
Трек 13  : извлечено точно (доверие 4)  [27777A59]  (AR v1)
Трек 14  : извлечено точно (доверие 4)  [9D7DC12A]  (AR v1)
Трек 15  : извлечено точно (доверие 4)  [152B2FD6]  (AR v1)
Трек 16  : извлечено точно (доверие 4)  [3A135599]  (AR v1)
Трек 17  : извлечено точно (доверие 4)  [2B88CB89]  (AR v1)
Все треки извлечены точно
Конец отчёта
==== Контрольная сумма отчёта 2CF3391E645CF1C147BC8A4A937B07BF554D5491F05F16D52A92DF179DB0BE79 ====

Отчёт auCDtect Task manager:

Код:
-----------------------
DON'T MODIFY THIS FILE
-----------------------
PERFORMER: auCDtect Task Manager, ver. 1.6.0 RC1 build 1.6.0.1
Copyright (c) 2008-2010 y-soft. All rights reserved
http://y-soft.org
ANALYZER: auCDtect: CD records authenticity detector, version 0.8.2
Copyright (c) 2004 Oleg Berngardt. All rights reserved.
Copyright (c) 2004 Alexander Djourik. All rights reserved.
FILE: Воровайки - Украденная любовь.flac
  Size: 586869557 Hash: EC7081F826D948B49830CC109F07CDE6 Accuracy: -m0
  Conclusion: CDDA 100%
  Signature: E7859A559882647CE0472AE4AC63367E0607A0BA

2008 - Роза ветров (Легенды жанра)

Лейбл: Classic Company
Каталог №: CC CD 034/08
Пpoдолжительность: 01:18:51
Тpeклист:
01. Хоп, мусорок (3:19)
02. Шмон (2:44)
03. Не воровка, не шалава (3:44)
04. Наколочки (3:20)
05. Катюшин шарфик (7:09)
06. Я обниму мою любовь (5:12)
07. Форточки - замочки (3:32)
08. Роза ветров (3:00)
09. Не стреляйте (3:53)
10. Весточки из далёких мест (3:37)
11. Вороваечки (3:36)
12. Ксюха + Витёк (5:29)
13. Гаси карманчики (3:06)
14. Чёрные цветы (3:18)
15. Украденная любовь (5:09)
16. Мусорёнок (3:07)
17. Подружка (3:52)
18. Журавли над зоной (4:04)
19. Мамочка - воровочка (3:56)
20. Жизнь блатная (3:45)

Отчёт ЕАС:

Код:
Exact Audio Copy V0.99 prebeta 5 from 4. May 2009
Отчёт EAC об извлечении, выполненном 30. марта 2010, 16:15
Воровайки / Роза ветров
Дисковод: ASUS    DRW-1814BLT   Adapter: 1  ID: 0
Режим чтения                 : Достоверность
Использование точного потока : Да
Отключение кэша аудио        : Да
Использование указателей C2  : Нет
Коррекция смещения при чтении                     : 6
Способность читать области Lead-in и Lead-out     : Нет
Заполнение пропущенных сэмплов тишиной            : Да
Удаление блоков с тишиной в начале и конце        : Нет
При вычислениях CRC использовались нулевые сэмплы : Да
Интерфейс                                         : Встроенный Win32-интерфейс для Win NT/2000
Выходной формат : Внутренние WAV-операции
Формат сэмплов  : 44.100 Гц; 16 бит; стерео
TOC извлечённого CD
     Трек |   Старт  | Длительность | Начальный сектор | Конечный сектор
    ---------------------------------------------------------------------
       1  |  0:00.00 |    3:18.57   |           0      |      14906
       2  |  3:18.57 |    2:43.40   |       14907      |      27171
       3  |  6:02.22 |    3:44.37   |       27172      |      44008
       4  |  9:46.59 |    3:20.17   |       44009      |      59025
       5  | 13:07.01 |    7:08.68   |       59026      |      91193
       6  | 20:15.69 |    5:11.66   |       91194      |     114584
       7  | 25:27.60 |    3:31.39   |      114585      |     130448
       8  | 28:59.24 |    3:00.26   |      130449      |     143974
       9  | 31:59.50 |    3:53.30   |      143975      |     161479
      10  | 35:53.05 |    3:36.65   |      161480      |     177744
      11  | 39:29.70 |    3:36.14   |      177745      |     193958
      12  | 43:06.09 |    5:28.49   |      193959      |     218607
      13  | 48:34.58 |    3:05.59   |      218608      |     232541
      14  | 51:40.42 |    3:18.20   |      232542      |     247411
      15  | 54:58.62 |    5:08.46   |      247412      |     270557
      16  | 60:07.33 |    3:06.62   |      270558      |     284569
      17  | 63:14.20 |    3:51.45   |      284570      |     301939
      18  | 67:05.65 |    4:03.70   |      301940      |     320234
      19  | 71:09.60 |    3:56.13   |      320235      |     337947
      20  | 75:05.73 |    3:44.41   |      337948      |     354788
Характеристики диапазона извлечения и сообщения об ошибках
Выбранный диапазон
     Имя файла C:\Documents and Settings\ВЛАД\Мои документы\Моя музыка\Lossless\Воровайки - Роза ветров (2008)\Воровайки - Роза ветров.wav
     Пиковый уровень 100.0 %
     Качество диапазона 100.0 %
     CRC теста 3AAD016A
     CRC копии 3AAD016A
     Копирование... OK
Ошибок не произошло
AccurateRip: сводка
Трек  1  нет в базе данных
Трек  2  нет в базе данных
Трек  3  нет в базе данных
Трек  4  нет в базе данных
Трек  5  нет в базе данных
Трек  6  нет в базе данных
Трек  7  нет в базе данных
Трек  8  нет в базе данных
Трек  9  нет в базе данных
Трек 10  нет в базе данных
Трек 11  нет в базе данных
Трек 12  нет в базе данных
Трек 13  нет в базе данных
Трек 14  нет в базе данных
Трек 15  нет в базе данных
Трек 16  нет в базе данных
Трек 17  нет в базе данных
Трек 18  нет в базе данных
Трек 19  нет в базе данных
Трек 20  нет в базе данных
Ни одного трека нет в базе AccurateRip
Конец отчёта

Отчёт auCDtect Task manager:

Код:
-----------------------
DON'T MODIFY THIS FILE
-----------------------
PERFORMER: auCDtect Task Manager, ver. 1.6.0 RC1 build 1.6.0.1
Copyright (c) 2008-2010 y-soft. All rights reserved
http://y-soft.org
ANALYZER: auCDtect: CD records authenticity detector, version 0.8.2
Copyright (c) 2004 Oleg Berngardt. All rights reserved.
Copyright (c) 2004 Alexander Djourik. All rights reserved.
FILE: Воровайки - Роза ветров.flac
  Size: 569175147 Hash: B77F3D6E8C3C05CDF51897BAF14D35B2 Accuracy: -m0
  Conclusion: MPEG 95%
  Signature: 27DB430FF9BDB7A825DBA2854BDA7AC252EC23B4

Спектр:

 

2009 - Х-Десятый альбом

Лейбл: Classic Company
Каталог №: CC CD 16/09
Пpoдолжительность: 00:56:59
Тpeклист:
01. Обама - мама (4:54)
02. Рожа протокольная (4:05)
03. Тополь (5:30)
04. Наш ОМОН (3:03)
05. Бабий остров (4:21)
06. Стриптизёрки (дуэт с Алексин) (2:57)
07. Тюльпаны (4:32)
08. Закон (3:40)
09. Синеглазый (3:39)
10. Столовка (3:56)
11. Каманча (4:21)
12. Мусор на пенсии (4:32)
13. Девчонка рыжая (3:16)
14. Столыпин (дуэт с Михаилом Гулько) (4:14)

Отчёт ЕАС:

Код:
Exact Audio Copy V1.0 beta 3 from 29. August 2011
Отчёт EAC об извлечении, выполненном 27. декабря 2011, 15:53
Воровайки / Десятый альбом
Дисковод: ASUS    DRW-24B3ST   Adapter: 1  ID: 1
Режим чтения                 : Достоверность
Использование точного потока : Да
Отключение кэша аудио        : Да
Использование указателей C2  : Нет
Коррекция смещения при чтении                     : 6
Способность читать области Lead-in и Lead-out     : Нет
Заполнение пропущенных сэмплов тишиной            : Да
Удаление блоков с тишиной в начале и конце        : Нет
При вычислениях CRC использовались нулевые сэмплы : Да
Интерфейс                                         : Встроенный Win32-интерфейс для Win NT/2000
Выходной формат : Внутренние WAV-операции
Формат сэмплов  : 44.100 Гц; 16 бит; стерео
TOC извлечённого CD
     Трек |   Старт  | Длительность | Начальный сектор | Конечный сектор
    ---------------------------------------------------------------------
       1  |  0:00.00 |    4:53.66   |           0      |      22040
       2  |  4:53.66 |    4:05.10   |       22041      |      40425
       3  |  8:59.01 |    5:29.66   |       40426      |      65166
       4  | 14:28.67 |    3:02.62   |       65167      |      78878
       5  | 17:31.54 |    4:21.26   |       78879      |      98479
       6  | 21:53.05 |    2:56.60   |       98480      |     111739
       7  | 24:49.65 |    4:32.21   |      111740      |     132160
       8  | 29:22.11 |    3:39.65   |      132161      |     148650
       9  | 33:02.01 |    3:38.64   |      148651      |     165064
      10  | 36:40.65 |    3:55.52   |      165065      |     182741
      11  | 40:36.42 |    4:21.29   |      182742      |     202345
      12  | 44:57.71 |    4:31.44   |      202346      |     222714
      13  | 49:29.40 |    3:15.61   |      222715      |     237400
      14  | 52:45.26 |    4:13.52   |      237401      |     256427
      15  | 59:31.03 |    7:06.24   |      267828      |     299801
Характеристики диапазона извлечения и сообщения об ошибках
Выбранный диапазон
     Имя файла F:\Lossless\1. Шансон, Авторская и Военная песня\Русский шансон (А-Б-В-Г)\Воровайки - Дискография\2009 - Десятый альбом\Воровайки - Десятый альбом.wav
     Пиковый уровень 96.7 %
     Скорость извлечения 6.4 X
     Качество диапазона 100.0 %
     CRC теста 6FF5931F
     CRC копии 6FF5931F
     Копирование... OK
Ошибок не произошло
AccurateRip: сводка
Трек  1  отсутствует в базе данных
Трек  2  отсутствует в базе данных
Трек  3  отсутствует в базе данных
Трек  4  отсутствует в базе данных
Трек  5  отсутствует в базе данных
Трек  6  отсутствует в базе данных
Трек  7  отсутствует в базе данных
Трек  8  отсутствует в базе данных
Трек  9  отсутствует в базе данных
Трек 10  отсутствует в базе данных
Трек 11  отсутствует в базе данных
Трек 12  отсутствует в базе данных
Трек 13  отсутствует в базе данных
Трек 14  отсутствует в базе данных
Ни одного трека нет в базе AccurateRip
Конец отчёта
==== Контрольная сумма отчёта D37DF1CDBF142EEE2FE8E48DF2A9E2838D7782B1BE900AD00091D9416A9D6F74 ====

Отчёт auCDtect Task manager:

Код:
-----------------------
DON'T MODIFY THIS FILE
-----------------------
PERFORMER: auCDtect Task Manager, ver. 1.6.0 RC1 build 1.6.0.1
Copyright (c) 2008-2010 y-soft. All rights reserved
http://y-soft.org
ANALYZER: auCDtect: CD records authenticity detector, version 0.8.2
Copyright (c) 2004 Oleg Berngardt. All rights reserved.
Copyright (c) 2004 Alexander Djourik. All rights reserved.
FILE: Воровайки - Десятый альбом.flac
  Size: 435883173 Hash: 601A14251E9FD2BE264017715D495F95 Accuracy: -m0
  Conclusion: CDDA 100%
  Signature: 85C53C3A5B52FA31E71C860D15E046685009CC3A

2009 - XI

Лейбл: Русский Шансон, Master Sound
Каталог №: РШ CD 132/09
Пpoдолжительность: 00:51:55
Тpeклист:
01. Мотыльки (5:02)
02. Как трудно ждать (4:12)
03. Петухи (3:44)
04. Душа любви (4:45)
05. Дочь воровайки (4:38)
06. Пацанчик (3:58)
07. Белая чайка (4:59)
08. Ромео и Джульетта (4:24)
09. Занозы души (3:59)
10. На Таганке (3:17)
11. Русский солдат (3:39)
12. Воровка и сын (5:17)

Отчёт ЕАС:

Код:
Exact Audio Copy V1.0 beta 3 from 29. August 2011
Отчёт EAC об извлечении, выполненном 28. декабря 2011, 15:19
Воровайки / XI
Дисковод: ASUS    DRW-24B3ST   Adapter: 1  ID: 1
Режим чтения                 : Достоверность
Использование точного потока : Да
Отключение кэша аудио        : Да
Использование указателей C2  : Нет
Коррекция смещения при чтении                     : 6
Способность читать области Lead-in и Lead-out     : Нет
Заполнение пропущенных сэмплов тишиной            : Да
Удаление блоков с тишиной в начале и конце        : Нет
При вычислениях CRC использовались нулевые сэмплы : Да
Интерфейс                                         : Встроенный Win32-интерфейс для Win NT/2000
Выходной формат : Внутренние WAV-операции
Формат сэмплов  : 44.100 Гц; 16 бит; стерео
TOC извлечённого CD
     Трек |   Старт  | Длительность | Начальный сектор | Конечный сектор
    ---------------------------------------------------------------------
       1  |  0:02.00 |    5:02.18   |         150      |      22817
       2  |  5:04.18 |    4:11.62   |       22818      |      41704
       3  |  9:16.05 |    3:43.72   |       41705      |      58501
       4  | 13:00.02 |    4:45.09   |       58502      |      79885
       5  | 17:45.11 |    4:38.20   |       79886      |     100755
       6  | 22:23.31 |    3:57.60   |      100756      |     118590
       7  | 26:21.16 |    4:58.55   |      118591      |     140995
       8  | 31:19.71 |    4:24.16   |      140996      |     160811
       9  | 35:44.12 |    3:59.28   |      160812      |     178764
      10  | 39:43.40 |    3:16.56   |      178765      |     193520
      11  | 43:00.21 |    3:39.13   |      193521      |     209958
      12  | 46:39.34 |    5:17.18   |      209959      |     233751
Характеристики диапазона извлечения и сообщения об ошибках
Выбранный диапазон
     Имя файла F:\Lossless\1. Шансон, Авторская и Военная песня\Русский шансон (А-Б-В-Г)\Воровайки - Дискография\2009 - XI\Воровайки - XI.wav
     Пиковый уровень 100.0 %
     Скорость извлечения 5.7 X
     Качество диапазона 100.0 %
     CRC теста 722D5FBF
     CRC копии 722D5FBF
     Копирование... OK
Ошибок не произошло
AccurateRip: сводка
Трек  1  отсутствует в базе данных
Трек  2  отсутствует в базе данных
Трек  3  отсутствует в базе данных
Трек  4  отсутствует в базе данных
Трек  5  отсутствует в базе данных
Трек  6  отсутствует в базе данных
Трек  7  отсутствует в базе данных
Трек  8  отсутствует в базе данных
Трек  9  отсутствует в базе данных
Трек 10  отсутствует в базе данных
Трек 11  отсутствует в базе данных
Трек 12  отсутствует в базе данных
Ни одного трека нет в базе AccurateRip
Конец отчёта
==== Контрольная сумма отчёта 2218D706B04C8A790E0C09C8B22B5528861975E906C7EB912D1FD3E61F9FD13D ====

Отчёт auCDtect Task manager:

Код:
-----------------------
DON'T MODIFY THIS FILE
-----------------------
PERFORMER: auCDtect Task Manager, ver. 1.6.0 RC1 build 1.6.0.1
Copyright (c) 2008-2010 y-soft. All rights reserved
http://y-soft.org
ANALYZER: auCDtect: CD records authenticity detector, version 0.8.2
Copyright (c) 2004 Oleg Berngardt. All rights reserved.
Copyright (c) 2004 Alexander Djourik. All rights reserved.
FILE: Воровайки - XI.flac
  Size: 393311613 Hash: 0918F8B9C36FFD38A30EC6A99F0F7B96 Accuracy: -m0
  Conclusion: CDDA 100%
  Signature: B1648054B9A54F7EDE3C4E2DDD6544F1ADC6447D

2010 - TANGO: Новое и Лучшее

Лейбл: Master Sound, Русский Шансон
Каталог №: MS CD 813/10
Пpoдолжительность: 01:01:07
Тpeклист:
01. Дочь воровайки (4:39)
02. Петухи (3:43)
03. Гулял сентябрь (дуэт с группой Бутырка) (4:23)
04. Мотыльки (5:02)
05. Танго (4:09)
06. Как трудно ждать (4:12)
07. Наперстки (3:46)
08. Душа любви (4:45)
09. Фраер (3:20)
10. Поезда (дуэт с Юрием Алмазовым) (4:01)
11. Каманча (Санечка) (4:07)
12. Любит - не любит (3:31)
13. Барак - столовка (4:00)
14. Малолетка (3:44)
15. Годы (3:45)

Отчёт ЕАС:

Код:
Exact Audio Copy V1.0 beta 3 from 29. August 2011
Отчёт EAC об извлечении, выполненном 27. декабря 2011, 16:49
Воровайки / TANGO
Дисковод: ASUS    DRW-24B3ST   Adapter: 1  ID: 1
Режим чтения                 : Достоверность
Использование точного потока : Да
Отключение кэша аудио        : Да
Использование указателей C2  : Нет
Коррекция смещения при чтении                     : 6
Способность читать области Lead-in и Lead-out     : Нет
Заполнение пропущенных сэмплов тишиной            : Да
Удаление блоков с тишиной в начале и конце        : Нет
При вычислениях CRC использовались нулевые сэмплы : Да
Интерфейс                                         : Встроенный Win32-интерфейс для Win NT/2000
Выходной формат : Внутренние WAV-операции
Формат сэмплов  : 44.100 Гц; 16 бит; стерео
TOC извлечённого CD
     Трек |   Старт  | Длительность | Начальный сектор | Конечный сектор
    ---------------------------------------------------------------------
       1  |  0:00.00 |    4:38.52   |           0      |      20901
       2  |  4:38.52 |    3:43.06   |       20902      |      37632
       3  |  8:21.58 |    4:23.29   |       37633      |      57386
       4  | 12:45.12 |    5:02.03   |       57387      |      80039
       5  | 17:47.15 |    4:08.54   |       80040      |      98693
       6  | 21:55.69 |    4:11.55   |       98694      |     117573
       7  | 26:07.49 |    3:46.12   |      117574      |     134535
       8  | 29:53.61 |    4:44.63   |      134536      |     155898
       9  | 34:38.49 |    3:19.39   |      155899      |     170862
      10  | 37:58.13 |    4:01.35   |      170863      |     188972
      11  | 41:59.48 |    4:07.11   |      188973      |     207508
      12  | 46:06.59 |    3:31.25   |      207509      |     223358
      13  | 49:38.09 |    3:59.51   |      223359      |     241334
      14  | 53:37.60 |    3:44.18   |      241335      |     258152
      15  | 57:22.03 |    3:45.26   |      258153      |     275053
Характеристики диапазона извлечения и сообщения об ошибках
Выбранный диапазон
     Имя файла F:\Lossless\1. Шансон, Авторская и Военная песня\Русский шансон (А-Б-В-Г)\Воровайки - Дискография\2010 - Tango\Воровайки - TANGO.wav
     Пиковый уровень 97.7 %
     Скорость извлечения 6.0 X
     Качество диапазона 100.0 %
     CRC теста 21D045B0
     CRC копии 21D045B0
     Копирование... OK
Ошибок не произошло
AccurateRip: сводка
Трек  1  отсутствует в базе данных
Трек  2  отсутствует в базе данных
Трек  3  отсутствует в базе данных
Трек  4  отсутствует в базе данных
Трек  5  отсутствует в базе данных
Трек  6  отсутствует в базе данных
Трек  7  отсутствует в базе данных
Трек  8  отсутствует в базе данных
Трек  9  отсутствует в базе данных
Трек 10  отсутствует в базе данных
Трек 11  отсутствует в базе данных
Трек 12  отсутствует в базе данных
Трек 13  отсутствует в базе данных
Трек 14  отсутствует в базе данных
Трек 15  отсутствует в базе данных
Ни одного трека нет в базе AccurateRip
Конец отчёта
==== Контрольная сумма отчёта 177B4ABFF998375C8E66E68A73E3719B9ABF7673D34B3C969A73C7895904C2B6 ====

Отчёт auCDtect Task manager:

Код:
-----------------------
DON'T MODIFY THIS FILE
-----------------------
PERFORMER: auCDtect Task Manager, ver. 1.6.0 RC1 build 1.6.0.1
Copyright (c) 2008-2010 y-soft. All rights reserved
http://y-soft.org
ANALYZER: auCDtect: CD records authenticity detector, version 0.8.2
Copyright (c) 2004 Oleg Berngardt. All rights reserved.
Copyright (c) 2004 Alexander Djourik. All rights reserved.
FILE: Воровайки - TANGO.flac
  Size: 447534801 Hash: 9A89899286469F0A099454213B1F2AE0 Accuracy: -m0
  Conclusion: CDDA 100%
  Signature: 7DED8E0624AEC73DB04FE7AB8F73599452E58205

2010 - Воровайки и друзья: Москва - Торонто

Лейбл: CD Land Media
Каталог №: CDLREC 4792010 CD
Пpoдолжительность: 00:50:18
Тpeклист:
01. Воровайки - Жизнь блатная (3:43)
02. Воровайки - Письмо Жириновскому (3:35)
03. Воровайки - Я молю (4:04)
04. БумеR - Сан-Диего (4:05)
05. Воровайки - Засохни (3:40)
06. Гера Грач - Грустное танго (6:30)
07. Воровайки - Проволока колючая (3:59)
08. Четыре масти - Инструкция, как стать президентом (5:22)
09. Воровайки - Письмо подруге (3:20)
10. Четыре масти - Частушки (3:09)
11. Воровайки - Фабрика звезд (4:43)
12. Аскер Седой - Моя Москва (4:07)

Отчёт ЕАС:

Код:
Exact Audio Copy V1.0 beta 3 from 29. August 2011
Отчёт EAC об извлечении, выполненном 28. декабря 2011, 15:55
Воровайки и друзья / Москва - Торонто
Дисковод: ASUS    DRW-24B3ST   Adapter: 1  ID: 1
Режим чтения                 : Достоверность
Использование точного потока : Да
Отключение кэша аудио        : Да
Использование указателей C2  : Нет
Коррекция смещения при чтении                     : 6
Способность читать области Lead-in и Lead-out     : Нет
Заполнение пропущенных сэмплов тишиной            : Да
Удаление блоков с тишиной в начале и конце        : Нет
При вычислениях CRC использовались нулевые сэмплы : Да
Интерфейс                                         : Встроенный Win32-интерфейс для Win NT/2000
Выходной формат : Внутренние WAV-операции
Формат сэмплов  : 44.100 Гц; 16 бит; стерео
TOC извлечённого CD
     Трек |   Старт  | Длительность | Начальный сектор | Конечный сектор
    ---------------------------------------------------------------------
       1  |  0:00.00 |    3:43.32   |           0      |      16756
       2  |  3:43.32 |    3:35.01   |       16757      |      32882
       3  |  7:18.33 |    4:03.66   |       32883      |      51173
       4  | 11:22.24 |    4:05.26   |       51174      |      69574
       5  | 15:27.50 |    3:40.07   |       69575      |      86081
       6  | 19:07.57 |    6:30.07   |       86082      |     115338
       7  | 25:37.64 |    3:59.03   |      115339      |     133266
       8  | 29:36.67 |    5:22.23   |      133267      |     157439
       9  | 34:59.15 |    3:20.14   |      157440      |     172453
      10  | 38:19.29 |    3:08.56   |      172454      |     186609
      11  | 41:28.10 |    4:42.60   |      186610      |     207819
      12  | 46:10.70 |    4:07.15   |      207820      |     226359
Характеристики диапазона извлечения и сообщения об ошибках
Выбранный диапазон
     Имя файла F:\Lossless\1. Шансон, Авторская и Военная песня\Русский шансон (А-Б-В-Г)\Воровайки - Дискография\2010 - Москва - Торонто\Воровайки и друзья - Москва - Торонто.wav
     Пиковый уровень 97.9 %
     Скорость извлечения 5.7 X
     Качество диапазона 100.0 %
     CRC теста FA0D707A
     CRC копии FA0D707A
     Копирование... OK
Ошибок не произошло
AccurateRip: сводка
Трек  1  отсутствует в базе данных
Трек  2  отсутствует в базе данных
Трек  3  отсутствует в базе данных
Трек  4  отсутствует в базе данных
Трек  5  отсутствует в базе данных
Трек  6  отсутствует в базе данных
Трек  7  отсутствует в базе данных
Трек  8  отсутствует в базе данных
Трек  9  отсутствует в базе данных
Трек 10  отсутствует в базе данных
Трек 11  отсутствует в базе данных
Трек 12  отсутствует в базе данных
Ни одного трека нет в базе AccurateRip
Конец отчёта
==== Контрольная сумма отчёта FD306690251468A09EA326EA4B66F5DF64FB90C7C54FD4B43FCB3B7603FCB804 ====

Отчёт auCDtect Task manager:

Код:
-----------------------
DON'T MODIFY THIS FILE
-----------------------
PERFORMER: auCDtect Task Manager, ver. 1.6.0 RC1 build 1.6.0.1
Copyright (c) 2008-2010 y-soft. All rights reserved
http://y-soft.org
ANALYZER: auCDtect: CD records authenticity detector, version 0.8.2
Copyright (c) 2004 Oleg Berngardt. All rights reserved.
Copyright (c) 2004 Alexander Djourik. All rights reserved.
FILE: Воровайки и друзья - Москва - Торонто.flac
  Size: 378628054 Hash: 54A3602914BBAAA6764714709649CF63 Accuracy: -m0
  Conclusion: CDDA 100%
  Signature: 4BEF745989DC71441818F8792E22D3664F0C2811

2011 - Полярная звезда

Лейбл: Classic Company
Каталог №: CC CD 12/11
Пpoдолжительность: 01:00:09
Тpeклист:
01. Воровайки, воровайки, воровайки (4:22)
02. Пожизненный срок (4:26)
03. Папаша (3:30)
04. Северная весна (дуэт с М. Шуфутинским) (3:35)
05. Кумовская любовь (3:37)
06. Принцесса Турандот (4:12)
07. Я вернусь, моя мама (4:52)
08. Конвой (4:13)
09. Мамины любовники (4:05)
10. Мусоренок (3:05)
11. Сестрёнка Светка (дуэт с А. Полотно) (4:48)
12. Монте - Карло (3:37)
13. Канарейка (4:42)
14. Катюшин шарфик (7:06)

Отчёт ЕАС:

Код:
Exact Audio Copy V1.0 beta 3 from 29. August 2011
Отчёт EAC об извлечении, выполненном 27. декабря 2011, 19:25
Воровайки / Полярная звезда
Дисковод: ASUS    DRW-24B3ST   Adapter: 1  ID: 1
Режим чтения                 : Достоверность
Использование точного потока : Да
Отключение кэша аудио        : Да
Использование указателей C2  : Нет
Коррекция смещения при чтении                     : 6
Способность читать области Lead-in и Lead-out     : Нет
Заполнение пропущенных сэмплов тишиной            : Да
Удаление блоков с тишиной в начале и конце        : Нет
При вычислениях CRC использовались нулевые сэмплы : Да
Интерфейс                                         : Встроенный Win32-интерфейс для Win NT/2000
Выходной формат : Внутренние WAV-операции
Формат сэмплов  : 44.100 Гц; 16 бит; стерео
TOC извлечённого CD
     Трек |   Старт  | Длительность | Начальный сектор | Конечный сектор
    ---------------------------------------------------------------------
       1  |  0:00.00 |    4:22.07   |           0      |      19656
       2  |  4:22.07 |    4:25.38   |       19657      |      39569
       3  |  8:47.45 |    3:30.05   |       39570      |      55324
       4  | 12:17.50 |    3:34.38   |       55325      |      71412
       5  | 15:52.13 |    3:37.06   |       71413      |      87693
       6  | 19:29.19 |    4:11.51   |       87694      |     106569
       7  | 23:40.70 |    4:51.59   |      106570      |     128453
       8  | 28:32.54 |    4:12.55   |      128454      |     147408
       9  | 32:45.34 |    4:05.29   |      147409      |     165812
      10  | 36:50.63 |    3:04.51   |      165813      |     179663
      11  | 39:55.39 |    4:47.53   |      179664      |     201241
      12  | 44:43.17 |    3:37.04   |      201242      |     217520
      13  | 48:20.21 |    4:42.28   |      217521      |     238698
      14  | 53:02.49 |    7:06.31   |      238699      |     270679
Характеристики диапазона извлечения и сообщения об ошибках
Выбранный диапазон
     Имя файла F:\Lossless\1. Шансон, Авторская и Военная песня\Русский шансон (А-Б-В-Г)\Воровайки - Дискография\2011 - Воровайки - Полярная звезда\Воровайки - Полярная звезда.wav
     Пиковый уровень 97.7 %
     Скорость извлечения 6.2 X
     Качество диапазона 100.0 %
     CRC теста F21F7B42
     CRC копии F21F7B42
     Копирование... OK
Ошибок не произошло
AccurateRip: сводка
Трек  1  отсутствует в базе данных
Трек  2  отсутствует в базе данных
Трек  3  отсутствует в базе данных
Трек  4  отсутствует в базе данных
Трек  5  отсутствует в базе данных
Трек  6  отсутствует в базе данных
Трек  7  отсутствует в базе данных
Трек  8  отсутствует в базе данных
Трек  9  отсутствует в базе данных
Трек 10  отсутствует в базе данных
Трек 11  отсутствует в базе данных
Трек 12  отсутствует в базе данных
Трек 13  отсутствует в базе данных
Трек 14  отсутствует в базе данных
Ни одного трека нет в базе AccurateRip
Конец отчёта
==== Контрольная сумма отчёта 60D69AEA7414C694B0FCE80154DF8A87525873D57294C14876C28AE53521B274 ====

Отчёт auCDtect Task manager:

Код:
-----------------------
DON'T MODIFY THIS FILE
-----------------------
PERFORMER: auCDtect Task Manager, ver. 1.6.0 RC1 build 1.6.0.1
Copyright (c) 2008-2010 y-soft. All rights reserved
http://y-soft.org
ANALYZER: auCDtect: CD records authenticity detector, version 0.8.2
Copyright (c) 2004 Oleg Berngardt. All rights reserved.
Copyright (c) 2004 Alexander Djourik. All rights reserved.
FILE: Воровайки - Полярная звезда.flac
  Size: 454398450 Hash: 6DC32A3D4A4B1FBBE185DABF7AA3ACD3 Accuracy: -m0
  Conclusion: CDDA 99%
  Signature: 8FF203EBCB03BC2B8841C880D824D7CF785E78AC

2011 - Grand Collection

Лейбл: Classic Company
Каталог №: CC CD 19/11
Пpoдолжительность: 01:12:43
Тpeклист:
01. Вороваечки (3:30)
02. Бен Ладен и Буш (3:19)
03. Рукавички (3:32)
04. Хоп, мусорок (3:14)
05. Не стреляйте (3:49)
06. Весточки из далеких мест (3:31)
07. Свобода (2:56)
08. Ксюха+Витек (5:27)
09. За последней чертой (3:38)
10. Дочки-матери (3:54)
11. Эх, раз, еще раз (2:30)
12. Форточки-замочки (3:29)
13. Подружка (3:47)
14. Пей, гуляй, веселись (3:06)
15. Жизнь блатная (3:42)
16. Ветра и холода (3:50)
17. Близкий далекий (4:24)
18. Не воровка, не шалава (3:40)
19. Журавли над зоной (3:58)
20. Все ерунда (3:26)

Отчёт ЕАС:

Код:
Exact Audio Copy V1.0 beta 1 from 15. November 2010
Отчёт EAC об извлечении, выполненном 19. июля 2011, 13:30
Воровайки / Grand Collection
Дисковод: ASUS    DRW-24B3ST   Adapter: 2  ID: 1
Режим чтения                 : Достоверность
Использование точного потока : Да
Отключение кэша аудио        : Да
Использование указателей C2  : Нет
Коррекция смещения при чтении                     : 6
Способность читать области Lead-in и Lead-out     : Нет
Заполнение пропущенных сэмплов тишиной            : Да
Удаление блоков с тишиной в начале и конце        : Нет
При вычислениях CRC использовались нулевые сэмплы : Да
Интерфейс                                         : Встроенный Win32-интерфейс для Win NT/2000
Выходной формат : Внутренние WAV-операции
Формат сэмплов  : 44.100 Гц; 16 бит; стерео
TOC извлечённого CD
     Трек |   Старт  | Длительность | Начальный сектор | Конечный сектор
    ---------------------------------------------------------------------
       1  |  0:00.00 |    3:30.36   |           0      |      15785
       2  |  3:30.36 |    3:19.21   |       15786      |      30731
       3  |  6:49.57 |    3:31.44   |       30732      |      46600
       4  | 10:21.26 |    3:14.17   |       46601      |      61167
       5  | 13:35.43 |    3:48.68   |       61168      |      78335
       6  | 17:24.36 |    3:31.30   |       78336      |      94190
       7  | 20:55.66 |    2:55.64   |       94191      |     107379
       8  | 23:51.55 |    5:26.39   |      107380      |     131868
       9  | 29:18.19 |    3:37.59   |      131869      |     148202
      10  | 32:56.03 |    3:54.24   |      148203      |     165776
      11  | 36:50.27 |    2:30.21   |      165777      |     177047
      12  | 39:20.48 |    3:29.20   |      177048      |     192742
      13  | 42:49.68 |    3:46.68   |      192743      |     209760
      14  | 46:36.61 |    3:05.63   |      209761      |     223698
      15  | 49:42.49 |    3:41.68   |      223699      |     240341
      16  | 53:24.42 |    3:49.62   |      240342      |     257578
      17  | 57:14.29 |    4:24.10   |      257579      |     277388
      18  | 61:38.39 |    3:40.09   |      277389      |     293897
      19  | 65:18.48 |    3:58.23   |      293898      |     311770
      20  | 69:16.71 |    3:25.47   |      311771      |     327192
Характеристики диапазона извлечения и сообщения об ошибках
Выбранный диапазон
     Имя файла H:\Lossless\1. Шансон, Авторская и Военная песня\Русский шансон\Сборники\Серия «Grand Collection» © 2001-2011 lossless\Воровайки (2011)\Воровайки - Grand Collection.wav
     Пиковый уровень 100.0 %
0.3 X
     Качество диапазона 100.0 %
     CRC теста 7A99A279
     CRC копии 7A99A279
     Копирование... OK
Ошибок не произошло
AccurateRip: сводка
Трек  1  нет в базе данных
Трек  2  нет в базе данных
Трек  3  нет в базе данных
Трек  4  нет в базе данных
Трек  5  нет в базе данных
Трек  6  нет в базе данных
Трек  7  нет в базе данных
Трек  8  нет в базе данных
Трек  9  нет в базе данных
Трек 10  нет в базе данных
Трек 11  нет в базе данных
Трек 12  нет в базе данных
Трек 13  нет в базе данных
Трек 14  нет в базе данных
Трек 15  нет в базе данных
Трек 16  нет в базе данных
Трек 17  нет в базе данных
Трек 18  нет в базе данных
Трек 19  нет в базе данных
Трек 20  нет в базе данных
Ни одного трека нет в базе AccurateRip
Конец отчёта
====  9F02B1DA72E4986B5F14D40C3C07DD31C3FA04446C565956D0BA4C2232ED90DE ====

Отчёт auCDtect Task manager:

Код:
-----------------------
DON'T MODIFY THIS FILE
-----------------------
PERFORMER: auCDtect Task Manager, ver. 1.6.0 RC1 build 1.6.0.1
Copyright (c) 2008-2010 y-soft. All rights reserved
http://y-soft.org
ANALYZER: auCDtect: CD records authenticity detector, version 0.8.2
Copyright (c) 2004 Oleg Berngardt. All rights reserved.
Copyright (c) 2004 Alexander Djourik. All rights reserved.
FILE: Воровайки - Grand Collection.flac
  Size: 553836871 Hash: EBA6D1C69298233F64D150A4F33FDE57 Accuracy: -m0
  Conclusion: CDDA 100%
  Signature: F6AF4E3F1C1829393EC1348151F1845595963FBC

2011 - Романсы

Лейбл: Classic Company, Квадро-диск
Каталог №: CC CD 69/11
Пpoдолжительность: 01:13:32
Тpeклист:
01. Белая чайка (5:01)
02. Потерялись ключи (3:17)
03. Отец (4:14)
04. Душа любви (4:44)
05. Карты правду говорили (4:26)
06. Мама (3:31)
07. Краденые встречи (3:19)
08. На краю земли (3:36)
09. Как мне жить без тебя (4:37)
10. Ветра и холода (3:51)
11. Пой,мальчик,пой (3:39)
12. Люблю,тоскую,скучаю (5:22)
13. Чёрные цветы (3:14)
14. Я обниму мою любовь (5:10)
15. Близкий-далёкий (4:27)
16. От рассвета до заката (3:20)
17. За последней чертой (3:40)
18. Я буду ждать весну (4:02)

Отчёт ЕАС:

Код:
Exact Audio Copy V1.0 beta 3 from 29. August 2011
Отчёт EAC об извлечении, выполненном 29. декабря 2011, 0:30
Воровайки / Романсы
Дисковод: ASUS    DRW-24B3ST   Adapter: 1  ID: 1
Режим чтения                 : Достоверность
Использование точного потока : Да
Отключение кэша аудио        : Да
Использование указателей C2  : Нет
Коррекция смещения при чтении                     : 6
Способность читать области Lead-in и Lead-out     : Нет
Заполнение пропущенных сэмплов тишиной            : Да
Удаление блоков с тишиной в начале и конце        : Нет
При вычислениях CRC использовались нулевые сэмплы : Да
Интерфейс                                         : Встроенный Win32-интерфейс для Win NT/2000
Выходной формат : Внутренние WAV-операции
Формат сэмплов  : 44.100 Гц; 16 бит; стерео
TOC извлечённого CD
     Трек |   Старт  | Длительность | Начальный сектор | Конечный сектор
    ---------------------------------------------------------------------
       1  |  0:00.00 |    5:00.71   |           0      |      22570
       2  |  5:00.71 |    3:17.19   |       22571      |      37364
       3  |  8:18.15 |    4:14.20   |       37365      |      56434
       4  | 12:32.35 |    4:44.36   |       56435      |      77770
       5  | 17:16.71 |    4:26.32   |       77771      |      97752
       6  | 21:43.28 |    3:30.60   |       97753      |     113562
       7  | 25:14.13 |    3:19.04   |      113563      |     128491
       8  | 28:33.17 |    3:35.44   |      128492      |     144660
       9  | 32:08.61 |    4:36.73   |      144661      |     165433
      10  | 36:45.59 |    3:51.05   |      165434      |     182763
      11  | 40:36.64 |    3:39.31   |      182764      |     199219
      12  | 44:16.20 |    5:22.24   |      199220      |     223393
      13  | 49:38.44 |    3:14.16   |      223394      |     237959
      14  | 52:52.60 |    5:09.72   |      237960      |     261206
      15  | 58:02.57 |    4:26.64   |      261207      |     281220
      16  | 62:29.46 |    3:20.27   |      281221      |     296247
      17  | 65:49.73 |    3:39.62   |      296248      |     312734
      18  | 69:29.60 |    4:01.64   |      312735      |     330873
Характеристики диапазона извлечения и сообщения об ошибках
Выбранный диапазон
     Имя файла F:\Lossless\1. Шансон, Авторская и Военная песня\Русский шансон (А-Б-В-Г)\Воровайки - Дискография\2011 - Романсы\Воровайки - Романсы.wav
     Пиковый уровень 96.6 %
     Скорость извлечения 6.8 X
     Качество диапазона 100.0 %
     CRC теста 74B524B7
     CRC копии 74B524B7
     Копирование... OK
Ошибок не произошло
AccurateRip: сводка
Трек  1  отсутствует в базе данных
Трек  2  отсутствует в базе данных
Трек  3  отсутствует в базе данных
Трек  4  отсутствует в базе данных
Трек  5  отсутствует в базе данных
Трек  6  отсутствует в базе данных
Трек  7  отсутствует в базе данных
Трек  8  отсутствует в базе данных
Трек  9  отсутствует в базе данных
Трек 10  отсутствует в базе данных
Трек 11  отсутствует в базе данных
Трек 12  отсутствует в базе данных
Трек 13  отсутствует в базе данных
Трек 14  отсутствует в базе данных
Трек 15  отсутствует в базе данных
Трек 16  отсутствует в базе данных
Трек 17  отсутствует в базе данных
Трек 18  отсутствует в базе данных
Ни одного трека нет в базе AccurateRip
Конец отчёта
==== Контрольная сумма отчёта 2E143A6B9FC7453C4C54832B80B0F2A46993C70888AD61964A45973E5E37FC88 ====

Отчёт auCDtect Task manager:

Код:
-----------------------
DON'T MODIFY THIS FILE
-----------------------
PERFORMER: auCDtect Task Manager, ver. 1.6.0 RC1 build 1.6.0.1
Copyright (c) 2008-2010 y-soft. All rights reserved
http://y-soft.org
ANALYZER: auCDtect: CD records authenticity detector, version 0.8.2
Copyright (c) 2004 Oleg Berngardt. All rights reserved.
Copyright (c) 2004 Alexander Djourik. All rights reserved.
FILE: Воровайки - Романсы.flac
  Size: 513650243 Hash: 928BF5F73DB75F03AA07B655C90529F0 Accuracy: -m0
  Conclusion: CDDA 100%
  Signature: E18DDEA5F130EBDE618E2AA25C480E0F928053D5

2013 - Московские улочки ХII:

Лейбл: Classic Company
Каталог №: CC CD 25/13
Пpoдолжительность: 00:43:39
Tpек лист:
01. Московские улочки (4:12)
02. Под чёрной шалью (4:04)
03. Говорила мне мать (5:01)
04. Голубое такси (3:59)
05. Жиган-лимон (2:49)
06. Я не знаю как мне дальше жить (3:44)
07. Знает только небо... (4:01)
08. Ты меня достала (4:25)
09. Андрюшка (4:08)
10. Звезда (4:08)
11. Капитан (3:08)

Отчёт ЕАС:

Код:
Exact Audio Copy V1.0 beta 1 from 15. November 2010
Отчёт EAC об извлечении, выполненном 4. июня 2013, 17:23
гр.Воровайки / Московские улочки
Дисковод: _NEC    DV-5800E   Adapter: 0  ID: 1
Режим чтения                 : Достоверность
Использование точного потока : Да
Отключение кэша аудио        : Да
Использование указателей C2  : Нет
Коррекция смещения при чтении                     : 6
Способность читать области Lead-in и Lead-out     : Нет
Заполнение пропущенных сэмплов тишиной            : Да
Удаление блоков с тишиной в начале и конце        : Нет
При вычислениях CRC использовались нулевые сэмплы : Да
Интерфейс                                         : Установленный внешний ASPI-интерфейс
Выходной формат : Внутренние WAV-операции
Формат сэмплов  : 44.100 Гц; 16 бит; стерео
TOC извлечённого CD
     Трек |   Старт  | Длительность | Начальный сектор | Конечный сектор
    ---------------------------------------------------------------------
       1  |  0:00.00 |    4:12.11   |           0      |      18910
       2  |  4:12.11 |    4:04.25   |       18911      |      37235
       3  |  8:16.36 |    5:00.40   |       37236      |      59775
       4  | 13:17.01 |    3:58.67   |       59776      |      77692
       5  | 17:15.68 |    2:48.57   |       77693      |      90349
       6  | 20:04.50 |    3:44.06   |       90350      |     107155
       7  | 23:48.56 |    4:01.19   |      107156      |     125249
       8  | 27:50.00 |    4:25.01   |      125250      |     145125
       9  | 32:15.01 |    4:07.59   |      145126      |     163709
      10  | 36:22.60 |    4:08.16   |      163710      |     182325
      11  | 40:31.01 |    3:07.54   |      182326      |     196404
Характеристики диапазона извлечения и сообщения об ошибках
Выбранный диапазон
     Имя файла C:\Documents and Settings\Admin\Рабочий стол\гр.Воровайки- Московские улочки (2013г.)\гр.Воровайки - Московские улочки.wav
     Пиковый уровень 96.7 %
0.6 X
     Качество диапазона 100.0 %
     CRC теста B84909B0
     CRC копии B84909B0
     Копирование... OK
Ошибок не произошло
AccurateRip: сводка
Трек  1  нет в базе данных
Трек  2  нет в базе данных
Трек  3  нет в базе данных
Трек  4  нет в базе данных
Трек  5  нет в базе данных
Трек  6  нет в базе данных
Трек  7  нет в базе данных
Трек  8  нет в базе данных
Трек  9  нет в базе данных
Трек 10  нет в базе данных
Трек 11  нет в базе данных
Ни одного трека нет в базе AccurateRip
Конец отчёта

Отчёт auCDtect Task manager:

Код:
-----------------------
DON'T MODIFY THIS FILE
-----------------------
PERFORMER: auCDtect Task Manager, ver. 1.6.0 RC1 build 1.6.0.1
Copyright (c) 2008-2010 y-soft. All rights reserved
http://y-soft.org
ANALYZER: auCDtect: CD records authenticity detector, version 0.8.2
Copyright (c) 2004 Oleg Berngardt. All rights reserved.
Copyright (c) 2004 Alexander Djourik. All rights reserved.
FILE: гр.Воровайки - Московские улочки.flac
  Size: 326742022 Hash: 905FB56ACCFE16913DAB0CC97EDB5FFC Accuracy: -m0
  Conclusion: CDDA 100%
  Signature: 94E5D7F0F65F5DB7C43B34EC94515587BA8CCC8B

-
Время раздачи: с 8:30 до 24:00 иногда: 24/7
Other forum [Profile] [PM]

Dracula

Longevity: 5 years 8 months

Posts: 10313

Торрент-статистика

Post 22-Jun-2013 05:53 (after 1 day 1 hour)

Топик был перенесен из форума Шансон в форум Russian Pop


p2000s
 
Similar theme
Forum Topic Author Torrent Replies Last Post
./templates/default/images/folder_dl.gif Фантастика, фэнтези, ужасы, мистика Юрий Суворов | Не маг (2019) [FB2] }{@R0N
1 | 0

0 | 160

3

2019-01-27 16:57
}{@R0N Latest
Display posts from previous:    
Reply to topic

The time now is: Today 19:45

All times are GMT + 3 Hours



You cannot post new topics in this forum
You cannot reply to topics in this forum
You cannot edit your posts in this forum
You cannot delete your posts in this forum
You cannot vote in polls in this forum
You cannot attach files in this forum
You cannot download files in this forum