Сегодня идет свободное скачивание без начисления Download

Джуманджи / Jumanji (Джо Джонстон) [1995, Фэнтези, Приключения, Семейный, BDRip 1080p] AVO (А.Гаврилов) + AVO (Ю.Живов)

Ответить на тему
 
Автор
Сообщение

maxkiller ®

Пол:

Стаж: 3 года 10 месяцев

Сообщений: 282

Торрент-статистика

Пост 22-Июн-2013 12:36

[Цитировать]

Джуманджи / Jumanji
Год выхода: 1995
Жанр: Фэнтези, Приключения, Семейный
Страна: США
Продолжительность: 01:44:06
Перевод 1: Авторский (одноголосный, закадровый) [А.Гаврилов]
Перевод 2: Авторский (одноголосный, закадровый) [Ю.Живов]
Перевод 3: Авторский (одноголосный, закадровый) [А.Гаврилов] (старый перевод)
Режиссер: Джо Джонстон
В ролях: Робин Уильямс, Джонатан Хайд, Кирстен Данст, Брэдли Пирс, Бонни Хант, Биби Нойуэрт, Дэвид Алан Грайр, Патришия Кларксон, Адам Хэнн-Берд, Лаура Белл Банди
О фильме:
Случайно обнаружив настольную игру со странным названием «Джуманджи» Алан Пэрриш, не зная о ее сверхъестественных свойствах, на глазах изумленной подружки переносится в джунгли.
Долгие годы он находится в потустороннем мире, до тех пор, пока двое ни о чем не подозревающих подростков не находят игру и не снимают волшебные чары, освобождая Алана из многолетнего плена.
Теперь им предстоит решить нелегкую задачу победить могущественную силу игры, пройти немыслимые препятствия и одержать победу над силами Магии!


Качество: BDRip 1080p
Формат: MKV
Видео кодек: H264
Аудио кодек: AC3
Видео: MPEG4/ISO/AVC, 1920x1044 (1.85:1), 1829 Kbps, 23.976 fps, Bits/(Pixel*Frame) : 0.038
Аудио 1: 48 kHz, AC3, 6 Ch, 448 kbps - Авторский[А.Гаврилов]
Аудио 2: 48 kHz, AC3, 2 Ch, 192 kbps - Авторский[А.Гаврилов] (старый перевод)
Аудио 3: 48 kHz, AC3, 6 Ch, 448 kbps - Авторский[Ю.Живов]
Cубтитры: английские

Дата создания рипа: 22.06.13

MI

E:INTERNETДжуманджи.1995.BDRip_1080p._2x[AVO](Gavrilov, Zhivov).mkv
General
Unique ID : 224972330273871268295281889505843036344 (0xA9401841C09EE3568DFD728EB86B40B8)
Complete name : E:INTERNETДжуманджи.1995.BDRip_1080p._2x[AVO](Gavrilov, Zhivov).mkv
Format : Matroska
Format version : Version 2
File size : 2.12 GiB
Duration : 1h 44mn
Overall bit rate : 2 916 Kbps
Encoded date : UTC 2013-06-22 07:13:22
Writing application : mkvmerge v4.2.0 ('No Talking') сборка от Jul 28 2010 18:38:23
Writing library : libebml v1.0.0 + libmatroska v1.0.0
Video #1
ID : 1
Format : AVC
Format/Info : Advanced Video Codec
Format profile : [email protected]
Format settings, CABAC : Yes
Format settings, ReFrames : 4 frames
Muxing mode : Header stripping
Codec ID : V_MPEG4/ISO/AVC
Duration : 1h 44mn
Bit rate : 1 829 Kbps
Width : 1 920 pixels
Height : 1 044 pixels
Display aspect ratio : 1.85:1
Frame rate mode : Constant
Frame rate : 23.976 fps
Color space : YUV
Chroma subsampling : 4:2:0
Bit depth : 8 bits
Scan type : Progressive
Bits/(Pixel*Frame) : 0.038
Stream size : 1.29 GiB (61%)
Writing library : x264 core 130 r2273 b3065e6
Encoding settings : cabac=1 / ref=4 / deblock=1:-1:-1 / analyse=0x3:0x113 / me=umh / subme=8 / psy=1 / psy_rd=1.00:0.15 / mixed_ref=1 / me_range=16 / chroma_me=1 / trellis=1 / 8x8dct=1 / cqm=0 / deadzone=21,11 / fast_pskip=1 / chroma_qp_offset=-3 / threads=12 / lookahead_threads=2 / sliced_threads=0 / nr=0 / decimate=1 / interlaced=0 / bluray_compat=0 / constrained_intra=0 / bframes=3 / b_pyramid=2 / b_adapt=2 / b_bias=0 / direct=3 / weightb=1 / open_gop=0 / weightp=2 / keyint=240 / keyint_min=23 / scenecut=40 / intra_refresh=0 / rc_lookahead=50 / rc=2pass / mbtree=1 / bitrate=1829 / ratetol=1.0 / qcomp=0.60 / qpmin=0 / qpmax=69 / qpstep=4 / cplxblur=20.0 / qblur=0.5 / ip_ratio=1.40 / aq=1:1.00
Default : Yes
Forced : No
Audio #2
ID : 2
Format : AC-3
Format/Info : Audio Coding 3
Mode extension : CM (complete main)
Format settings, Endianness : Big
Muxing mode : Header stripping
Codec ID : A_AC3
Duration : 1h 44mn
Bit rate mode : Constant
Bit rate : 448 Kbps
Channel(s) : 6 channels
Channel positions : Front: L C R, Side: L R, LFE
Sampling rate : 48.0 KHz
Bit depth : 16 bits
Compression mode : Lossy
Stream size : 334 MiB (15%)
Title : Gavrilov [NEW]
Language : Russian
Default : Yes
Forced : No
Audio #3
ID : 3
Format : AC-3
Format/Info : Audio Coding 3
Mode extension : CM (complete main)
Format settings, Endianness : Big
Muxing mode : Header stripping
Codec ID : A_AC3
Duration : 1h 44mn
Bit rate mode : Constant
Bit rate : 192 Kbps
Channel(s) : 2 channels
Channel positions : Front: L R
Sampling rate : 48.0 KHz
Bit depth : 16 bits
Compression mode : Lossy
Stream size : 143 MiB (7%)
Title : Gavrilov [Staruy]
Language : Russian
Default : No
Forced : No
Audio #4
ID : 4
Format : AC-3
Format/Info : Audio Coding 3
Mode extension : CM (complete main)
Format settings, Endianness : Big
Muxing mode : Header stripping
Codec ID : A_AC3
Duration : 1h 44mn
Bit rate mode : Constant
Bit rate : 448 Kbps
Channel(s) : 6 channels
Channel positions : Front: L C R, Side: L R, LFE
Sampling rate : 48.0 KHz
Bit depth : 16 bits
Compression mode : Lossy
Stream size : 334 MiB (15%)
Title : Zhivov
Language : Russian
Default : No
Forced : No

Скриншоты

               
Вне форума [Профиль] [ЛС]

Koralina

Стаж: 5 лет 3 месяца

Сообщений: 1433

Откуда: Lithuania

Торрент-статистика

Пост 22-Июн-2013 13:43 (спустя 1 час 6 минут)

[Цитировать]

maxkiller, в скриншотах уберите превью по клику, сделайте их полного размера и заключите в тег [imgs] [/imgs]

_________________
Вне форума [Профиль] [ЛС]
Показать сообщения:    
Ответить на тему

Текущее время: Сегодня 14:52

Часовой пояс: GMT + 3



Вы не можете начинать темы
Вы не можете отвечать на сообщения
Вы не можете редактировать свои сообщения
Вы не можете удалять свои сообщения
Вы не можете голосовать в опросах
Вы не можете прикреплять файлы к сообщениям
Вы не можете скачивать файлы