Сегодня идет свободное скачивание без начисления Download

Гудзонский ястреб / Hudson Hawk (1991) [H.264/720р-LQ] HDTVRip

Ответить на тему
 
Автор
Сообщение

Omen ®

Стаж: 4 года 1 месяц

Сообщений: 194382

Торрент-статистика

Пост 22-Авг-2011 12:33

[Цитировать]

Гудзонский ястреб / Hudson Hawk -
Русское название: Гудзонский ястреб
Оригинальное название: Hudson Hawk
Год выпуска: 1991
Жанр: Боевик, Комедия, Приключения-Описание фильма:
«Гудзонский Ястреб» — прозвище непревзойденного вора Эдди, который может открыть любой сейф за считанные секунды. Выйдя из тюрьмы, король кражи решает уйти на заслуженный отдых. Но слишком многие на свободе заинтересованы в его криминальном таланте.
С помощью шантажа коварные злоумышленники заставляют Эдди совершить ограбление века: он должен похитить три шедевра Леонардо Да Винчи из самых охраняемых музеев мира всего за несколько дней! «Гудзонский Ястреб» снова отправляется на охоту, но на этот раз в бескрайнем небе он не одинок…-Режиссер: Майкл Леманн
Актеры: Брюс Уиллис, Дэнни Айелло, Энди МакДауэлл, Джэймс Коберн, Ричард Е. Грант, Сандра Бернард, Дон Харви, Дэвид Карузо, Фрэнк Сталлоне-Продолжительность: 01:39:56
Перевод: Дублированный- -Релиз группа: -Видеокодек: MPEG-4 AVC/H.264
Битрейт видео: 2694 Кбит/сек
Размер кадра: 1280x720
Качество видео: HDTVRip
Аудиокодек: AC3 5.1
Битрейт аудио: 448 Кбит/сек-

MediaInfo

Общее
Уникальный идентификатор : 172598104989746370366873028857125943559 (0x81D92F95775E2F5FBBFAC2FD41E03907)
Полное имя : E:\downloads\Hudson.Hawk.1991.720p.BDRip.x264[/*spam*/].mkv
Формат : Matroska
Версия формата : Version 2
Размер файла : 2,19 Гбайт
Продолжительность : 1 ч. 39 м.
Общий поток : 3137 Кбит/сек
Дата кодирования : UTC 2010-10-16 17:09:26
Программа кодирования : mkvmerge v3.0.0 ('Hang up your Hang-Ups') built on Dec 12 2009 15:20:35
Библиотека кодирования : libebml v0.7.9 + libmatroska v0.8.1
Видео
Идентификатор : 1
Формат : AVC
Формат/Информация : Advanced Video Codec
Профиль формата : [email protected]
Параметр CABAC формата : Да
Параметр ReFrames формата : 3 кадра
Идентификатор кодека : V_MPEG4/ISO/AVC
Продолжительность : 1 ч. 39 м.
Вид битрейта : Переменный
Битрейт : 2694 Кбит/сек
Максимальный битрейт : 17,5 Мбит/сек
Ширина : 1280 пикселей
Высота : 720 пикселей
Соотношение сторон : 16:9
Частота кадров : 23,976 кадра/сек
Цветовое пространство : YUV
Субдискретизация насыщенности : 4:2:0
Битовая глубина : 8 бит
Тип развёртки : Прогрессивная
Бит/(Пиксели*Кадры) : 0.122
Размер потока : 1,83 Гбайт (84%)
Библиотека кодирования : x264 core 104 r1713 c276662
Настройки программы : cabac=1 / ref=1 / deblock=1:0:0 / analyse=0x3:0x3 / me=dia / subme=1 / psy=1 / psy_rd=0.00:0.00 / mixed_ref=0 / me_range=16 / chroma_me=1 / trellis=0 / 8x8dct=1 / cqm=0 / deadzone=21,11 / fast_pskip=1 / chroma_qp_offset=0 / threads=6 / sliced_threads=0 / slices=4 / nr=0 / decimate=1 / interlaced=0 / constrained_intra=0 / bframes=3 / b_pyramid=1 / b_adapt=1 / b_bias=0 / direct=1 / weightb=1 / open_gop=0 / weightp=0 / keyint=24 / keyint_min=1 / scenecut=40 / intra_refresh=0 / rc_lookahead=0 / rc=abr / mbtree=0 / bitrate=2694 / ratetol=1.0 / qcomp=0.60 / qpmin=0 / qpmax=51 / qpstep=4 / vbv_maxrate=17500 / vbv_bufsize=14500 / ip_ratio=1.10 / pb_ratio=1.10 / aq=1:1.00 / nal_hrd=vbr
Язык : English
Аудио
Идентификатор : 2
Формат : AC-3
Формат/Информация : Audio Coding 3
Расширение режима : CM (complete main)
Идентификатор кодека : A_AC3
Продолжительность : 1 ч. 39 м.
Вид битрейта : Постоянный
Битрейт : 448 Кбит/сек
Каналы : 5 каналов
Расположение каналов : Front: L C R, Side: L R
Частота : 48,0 КГц
Битовая глубина : 16 бит
Метод сжатия : С потерями
Размер потока : 320 Мбайт (14%)
Заголовок : Профессиональный (полное дублирование)
Язык : Russian
Скриншоты:
         
         
Вне форума [Профиль] [ЛС]
Показать сообщения:    
Ответить на тему

Текущее время: Сегодня 17:39

Часовой пояс: GMT + 3



Вы не можете начинать темы
Вы не можете отвечать на сообщения
Вы не можете редактировать свои сообщения
Вы не можете удалять свои сообщения
Вы не можете голосовать в опросах
Вы не можете прикреплять файлы к сообщениям
Вы не можете скачивать файлы