Сегодня идет свободное скачивание без начисления Download

Бренда Старр / Brenda Starr (Роберт Эллис Миллер) (Мелодрама, Комедия, Приключения, 1989) HDTVRip [H.264]

Ответить на тему
 
Автор
Сообщение

Omen ®

Стаж: 4 года 1 месяц

Сообщений: 194390

Торрент-статистика

Пост 22-Июн-2013 17:29

[Цитировать]

Бренда Старр / Brenda Starr - Русское название: Бренда Старр
Оригинальное название: Brenda Starr
Год выпуска: 1989
Жанр: Мелодрама, Комедия, Приключения
Производство: США/AM/PM Entertainment, New World Pictures, Tribune Entertainment
Описание фильма:
Художник входит в собственноручно нарисованный комикс, чтобы уговорить героиню Бренду Старр не покидать газету, где эти комиксы печатаются. Но ему приходится стать участником приключений девушки в «комическом» мире.
Режиссер: Роберт Эллис Миллер
Сценарий: Норин Стоун, Джеймс Д. Бьюкэнэн, Дженни Уолкинд
Продюсер: Майрон А. Химэн, Джон Д. Бэк, Алана Х. Ламброс
Актеры: Брук Шилдс, Тимоти Далтон, Тони Пек, Дайана Скаруид, Нестор Серрано, Джеффри Тэмбор, Джун Гейбл, Чарльз Дёрнинг, Кэтлин Уилхойт, Джон Шорт
Продолжительность: 01:29:22
Перевод: Многоголосый закадровый

Дата мировой премьеры: 15 мая 1989
Видеокодек: MPEG-4 AVC/H.264
Битрейт видео: ~2600 Кбит/сек
Размер кадра: 1024x576
Качество видео: HDTVRip
Аудиокодек: AC3 3.0
Битрейт аудио: 192 Кбит/сек

Знаете ли вы, что...

Фильм впервые был показан 15 апреля 1992 года в США
Некоторые источники указывают также другую дату создания фильма — 1986, а не 1989 год
Этот фильм считают предшественником фильма Классный мир с Ким Бейсингер в главной роли
По непонятным причинам фильм длительное время (3 — 6 лет) «пылился» на полке и был выпущен в прокат только в 1992 году

Реценция с кинопоиска от Polnoch2009:

Смазливый художник — Майк Рэндалл — рисует комиксы о роковой красотке-журналистке Бренде, и во время творческого процесса, заявляет рисованной девице, что она мол не в его вкусе. Знамо дело, такого хамства не потерпит ни одна девушка, даже нарисованная. Заявив ошалевшему от неожиданности обидчику что-то вроде «сам дурак», Бренда исчезает со страниц комикса, оставив незадачливого художника ни с чем. Вместо того, что бы рвануть к ближайшему психиатру с мольбами: «Помогите, глюки одолевают!», Майк рисует себя на опустевшей странице и, поднатужившись, перемещается в комикс.
Тем временем, отважная журналистка, не щадя маникюра своего, уже умудрилась обезвредить опасного преступника, попасть в больницу, выписаться и отправиться в непроходимые дебри Амазонии, в погоню за новой сенсацией. И каких только опасностей не поджидает нашу героиню на пути к достоверной информации: по пятам за ней следует и конкурентка-выдра вульгарная, и шпионы советские, возглавляемые как бы ни самим Лениным и Крупской, собственными персонами. Одна радость, скрашивает трудовые будни Бренды — периодически появляющийся, умопомрачительный и таинственный Бэйзел Сен-Джон, даром что одноглазый, все равно хорош до неприличия. И вот как раз, в то время, как разомлевшая Бренда в очередной раз таяла под взглядом чарующего глаза Бэйзела, её и настиг Майк. Чего только не делал красавчик, что бы вымолить прощения — и душегубцев в номер к Бренде подосланных вырубил, и торсом оголенным перед ней фестивалил, не идет девка на компромисс и баста. Но не так прост наш художник, как кажется, и в то время, как Бэйзел исчезает в неизвестном направлении, Майк разделяет с Брендой её приключения.
Пьянящая атмосфера опасности и периодически намокающий милый и очаровательный Майк сделали своё дело — любвеобильная Бренда не устояла. И не известно до какой степени она не устояла бы, не появись вдруг Бэйзел, как всегда вовремя и как всегда бессовестно неотразимый. Далее события продолжались стремительно — волнительная развязка, триумфальная концовка и разбитое корыто.
В фильме нет ровным счетом никакой заявки на серьезность, действие происходит в мастерски переданной атмосфере комикса (сумазбродно-забавной, мимолетно-остросюжетной и иргиво-романтичной), в потрясающих пейзажах стилизованных под 20-30-е годы XX-го века.
Брук Шилдс в роли Бренды необыкновенно хороша, впрочем, как всегда.
Все мужские персонажи неотразимы, даже у Хосе (наёмного пилота, пособника Либи Липс, в исполнении Нестора Серрано) в конце был такой пламенный взгляд, что просто уму не постижимо. Что уж говорить про загадочного Бэйзела (Тимоти Далтон), и совершенно очаровательного Майка (Тони Пек)… Мои симпатии, попеременно склонялись на сторону то одного то другого героя. Возможно из-за того, что Майк дольше находился на экране, и у них с Брендой было больше совместно пережитого экшена, а может просто по тому, что он такой милый и мягкий, как домашний плед, я болела за него.
Расслабьтесь, отключитесь от реальности и наслаждайтесь этим ярким, красивым и легкомысленным фильмом.
10 из 10

MediaInfo:

General
Unique ID : 246127348855666589284552425389769058676 (0xB92A67337CA3064280E1F6EAAD276974)
Complete name : H:\Downloads\Бренда Старр.mkv
Format : Matroska
Format version : Version 4 / Version 2
File size : 1.74 GiB
Duration : 1h 29mn
Overall bit rate : 2 794 Kbps
Encoded date : UTC 2013-06-22 02:03:40
Writing application : mkvmerge v6.0.0 ('Coming Up For Air') built on Jan 20 2013 09:52:00
Writing library : libebml v1.3.0 + libmatroska v1.4.0
Video
ID : 1
Format : AVC
Format/Info : Advanced Video Codec
Format profile : [url=mailto:[email protected]][email protected][/url]
Format settings, CABAC : Yes
Format settings, ReFrames : 8 frames
Codec ID : V_MPEG4/ISO/AVC
Duration : 1h 29mn
Bit rate : 2 600 Kbps
Width : 1 024 pixels
Height : 576 pixels
Display aspect ratio : 16:9
Frame rate mode : Constant
Frame rate : 29.970 fps
Color space : YUV
Chroma subsampling : 4:2:0
Bit depth : 8 bits
Scan type : Progressive
Bits/(Pixel*Frame) : 0.147
Stream size : 1.59 GiB (91%)
Title : Brenda Starr
Writing library : x264 core 125 r2208 d9d2288
Encoding settings : cabac=1 / ref=8 / deblock=1:-1:-1 / analyse=0x3:0x133 / me=umh / subme=9 / psy=1 / psy_rd=1.00:0.10 / mixed_ref=1 / me_range=32 / chroma_me=1 / trellis=2 / 8x8dct=1 / cqm=0 / deadzone=21,11 / fast_pskip=0 / chroma_qp_offset=-3 / threads=6 / lookahead_threads=1 / sliced_threads=0 / nr=0 / decimate=1 / interlaced=0 / bluray_compat=0 / constrained_intra=0 / bframes=3 / b_pyramid=2 / b_adapt=2 / b_bias=0 / direct=3 / weightb=1 / open_gop=0 / weightp=2 / keyint=250 / keyint_min=25 / scenecut=40 / intra_refresh=0 / rc_lookahead=60 / rc=2pass / mbtree=1 / bitrate=2600 / ratetol=1.0 / qcomp=0.60 / qpmin=10 / qpmax=51 / qpstep=4 / cplxblur=20.0 / qblur=0.5 / ip_ratio=1.40 / aq=1:1.00
Language : English
Default : Yes
Forced : No
Audio
ID : 2
Format : AC-3
Format/Info : Audio Coding 3
Mode extension : CM (complete main)
Format settings, Endianness : Big
Codec ID : A_AC3
Duration : 1h 29mn
Bit rate mode : Constant
Bit rate : 192 Kbps
Channel(s) : 3 channels
Channel positions : Front: L C R
Sampling rate : 48.0 KHz
Bit depth : 16 bits
Compression mode : Lossy
Stream size : 123 MiB (7%)
Title : Многоголосый закадровый
Language : Russian
Default : Yes
Forced : No
Скриншоты:          
         
Вне форума [Профиль] [ЛС]
Показать сообщения:    
Ответить на тему

Текущее время: Сегодня 14:53

Часовой пояс: GMT + 3



Вы не можете начинать темы
Вы не можете отвечать на сообщения
Вы не можете редактировать свои сообщения
Вы не можете удалять свои сообщения
Вы не можете голосовать в опросах
Вы не можете прикреплять файлы к сообщениям
Вы не можете скачивать файлы