Сегодня идет свободное скачивание без начисления Download

Все меры предосторожности / Extreme Prejudice (Уолтер Хилл) (Боевик, Драма, Криминал, 1987) HDRip

Ответить на тему
 
Автор
Сообщение

Omen ®

Стаж: 4 года 1 месяц

Сообщений: 194359

Торрент-статистика

Пост 22-Июн-2013 17:36

[Цитировать]

Все меры предосторожности
Extreme Prejudice
- Русское название: Все меры предосторожности
Оригинальное название: Extreme Prejudice
Год выпуска: 1987
Жанр: Боевик, Драма, Криминал
Производство: США
Описание фильма:
Джек Бентин, неуязвимый техасский рейнджер, должен проявить крутой характер. Ведь его друг детства — один из главарей контрабандной перевозки наркотиков через мексиканскую границу, и шесть агентов спецслужб получают задание захватить наркоторговца. Захочет ли Джек защитить своего друга?
Режиссер: Уолтер Хилл
Актеры: Ник Нолти, Пауэрс Бут, Майкл Айронсайд, Мария Кончита Алонсо, Рип Торн, Клэнси Браун, Уильям Форсайт
Продолжительность: 01:40:44
Перевод: Многоголосый закадровый
Субтитры: отсутствуют

Дата мировой премьеры: 24 апреля 1987
Видеокодек: Xvid
Битрейт видео: ~1714 Кбит/сек
Размер кадра: 720x400
Качество видео: HDRip
Аудиокодек: AC3 5.1
Битрейт аудио: 384 Кбит/сек

MediaInfo:

Формат : AVI
Формат/Информация : Audio Video Interleave
Размер файла : 1,48 Гбайт
Продолжительность : 1 ч. 40 м.
Общий поток : 2107 Кбит/сек
Режиссёр : Consul
Программа кодирования : VirtualDubModRus 1.5.10.2 (build 2542/release)
Библиотека кодирования : VirtualDubMod build 2542/release
Видео
Идентификатор : 0
Формат : MPEG-4 Visual
Профиль формата : Advanced [email protected]
Параметр BVOP формата : 1
Параметр QPel формата : Нет
Параметр GMC формата : Без точки перехода
Параметр матрицы формата : Выборочная
Идентификатор кодека : XVID
Идентификатор кодека/Подсказка : XviD
Продолжительность : 1 ч. 40 м.
Битрейт : 1714 Кбит/сек
Ширина : 720 пикселей
Высота : 400 пикселей
Соотношение сторон : 16:9
Частота кадров : 25,000 кадров/сек
Цветовое пространство : YUV
Субдискретизация насыщенности : 4:2:0
Битовая глубина : 8 бит
Тип развёртки : Прогрессивная
Метод сжатия : С потерями
Бит/(Пиксели*Кадры) : 0.238
Размер потока : 1,21 Гбайт (81%)
Библиотека кодирования : XviD 73
Аудио
Идентификатор : 1
Формат : AC-3
Формат/Информация : Audio Coding 3
Идентификатор кодека : 2000
Продолжительность : 1 ч. 40 м.
Вид битрейта : Постоянный
Битрейт : 384 Кбит/сек
Каналы : 6 каналов
Частота : 48,0 КГц
Метод сжатия : С потерями
Размер потока : 277 Мбайт (18%)
Выравнивание : Разделение по промежуткам
Продолжительность промежутка : 40 мс. (1,00 видеокадр)
Время предзагрузки промежутка : 500 мс.
Скриншоты:
         
Вне форума [Профиль] [ЛС]
Показать сообщения:    
Ответить на тему

Текущее время: Сегодня 01:17

Часовой пояс: GMT + 3



Вы не можете начинать темы
Вы не можете отвечать на сообщения
Вы не можете редактировать свои сообщения
Вы не можете удалять свои сообщения
Вы не можете голосовать в опросах
Вы не можете прикреплять файлы к сообщениям
Вы не можете скачивать файлы