Today is a free download without charge Download

Весьегонская волчица (Николай Соловцов) (Драма, Приключения, 2004) DVDRip

Reply to topic
 
Author
Message

Omen ®

Longevity: 6 years 11 months

Posts: 181090

Торрент-статистика

Post 22-Jun-2013 18:35

[Quote]

Весьегонская волчица- Русское название: Весьегонская волчица
Год выпуска: 2004
Жанр: Драма, Приключения
Описание фильма:
Герой фильма — Егор — потомственный охотник-волчатник. Он жил среди природы, как жили его дед и прадеды: растил дочь, любил лес, охотился, отстреливал волков. Но вдруг его жизнь пересекается с жизнью необыкновенной ВОЛЧИЦЫ. История которая произошла с Егором и вожаком стаи — умной, опытной, — а потому крайне опасной волчицей и стала сюжетом фильма.
Человеку и зверю придётся пройти через множество испытаний, которые изменят их. Месть, ненависть, любовь, предательство, стремление понять друг друга и невозможность договориться — все эти чувства перживут вместе с главными героями и жители небольшой российской деревушки где происходит действие фильма.
Режиссер: Николай Соловцов
Актеры: Олег Фомин, Елена Дробышева, Владимир Гостюхин, Лев Дуров, Лев Борисов, Александр Тютин, Наталья Казначеева, Ирина Савина, Алексей Хардиков, Геннадий Галкин, Маша Вишнякова
Продолжительность: 101 мин. / 01:41:03

Видеокодек: Xvid
Битрейт видео: ~1844kbps
Размер кадра: 704x400
Качество видео: DVDRip
Аудиокодек: AC3, 2 канала
Битрейт аудио: 224kbps

MediaInfo

Общее
Полное имя : C:\Users\Тимур\Desktop\Volchica\Thumbs.db
Размер файла : 3,00 Кбайт
Общее
Полное имя : C:\Users\Тимур\Desktop\Volchica\Vesyegonskaya volchica.avi
Формат : AVI
Формат/Информация : Audio Video Interleave
Размер файла : 1,47 Гбайт
Продолжительность : 1 ч. 41 м.
Общий поток : 2079 Кбит/сек
Программа кодирования : VirtualDubMod 1.5.10.3 | www.virtualdub-fr.org || (build 2550/release)
Библиотека кодирования : VirtualDubMod build 2550/release
Видео
Идентификатор : 0
Формат : MPEG-4 Visual
Профиль формата : Advanced [email protected]
Параметр BVOP формата : 1
Параметр QPel формата : Нет
Параметр GMC формата : Без точки перехода
Параметр матрицы формата : Выборочная
Идентификатор кодека : XVID
Идентификатор кодека/Подсказка : XviD
Продолжительность : 1 ч. 41 м.
Битрейт : 1845 Кбит/сек
Ширина : 704 пикселя
Высота : 400 пикселей
Соотношение сторон : 16:9
Частота кадров : 25,000 кадров/сек
Цветовое пространство : YUV
Субдискретизация насыщенности : 4:2:0
Битовая глубина : 8 бит
Тип развёртки : Прогрессивная
Метод сжатия : С потерями
Бит/(Пиксели*Кадры) : 0.262
Размер потока : 1,30 Гбайт (89%)
Библиотека кодирования : XviD 1.2.1 (UTC 2008-12-04)
Аудио
Идентификатор : 1
Формат : AC-3
Формат/Информация : Audio Coding 3
Расширение режима : CM (complete main)
Параметр Endianness формата : Big
Идентификатор кодека : 2000
Продолжительность : 1 ч. 41 м.
Вид битрейта : Постоянный
Битрейт : 224 Кбит/сек
Каналы : 2 канала
Расположение каналов : Front: L R
Частота : 48,0 КГц
Битовая глубина : 16 бит
Метод сжатия : С потерями
Размер потока : 162 Мбайт (11%)
Выравнивание : Разделение по промежуткам
Продолжительность промежутка : 40 мс. (1,00 видеокадр)
Время предзагрузки промежутка : 500 мс.
Скриншоты:
       
Other forum [Profile] [PM]
Display posts from previous:    
Reply to topic

The time now is: Today 05:28

All times are GMT + 3 Hours



You cannot post new topics in this forum
You cannot reply to topics in this forum
You cannot edit your posts in this forum
You cannot delete your posts in this forum
You cannot vote in polls in this forum
You cannot attach files in this forum
You cannot download files in this forum