Сегодня идет свободное скачивание без начисления Download

Вальдес идет / Valdez Is Coming (Эдвин Шерин) (Вестерн, 1971) HDRip [H.264]

Ответить на тему
 
Автор
Сообщение

Omen ®

Стаж: 4 года 1 месяц

Сообщений: 194394

Торрент-статистика

Пост 23-Июн-2013 10:11

[Цитировать]

Вальдес идет / Valdez Is Coming -«They tore his body. They buried his pride. But they forgot his old uniform, his Sharps rifle, and his Buffalo gun. Find Tanner, El Segundo, and the 16 others. And tell them Valdez is coming.»- Русское название: Вальдес идет
Оригинальное название: Valdez Is Coming
Год выпуска: 1971
Жанр: Вестерн
Страна: США
Производство: Ira Steiner Productions, Norlan Productions
Описание фильма:
Стареющий шериф Боб Вальдес застрелил человека, ошибочно обвиненного в преступлении влиятельным и богатым мистером Таннером. Пытаясь хоть как-то исправить ситуацию Вальдес решает собрать немного денег для вдовы убитого им человека. По справедливости будет, считает он, если деньги дадут местные богачи и мистер Таннер в частности. Но у Таннера свои понятия о справедливости…
По одноимённому роману Элмора Леонарда (Elmore Leonard) 1970 года.
Режиссер: Эдвин Шерин
Сценарий: Роланд Кибби, Дэвид Рэйфиел, Элмор Леонард
Продюсер: Ира Стейнер, Роланд Кибби, Сэм Мэннерс
Актеры: Берт Ланкастер, Сьюзен Кларк, Фрэнк Сильвера, Джон Сайфер, Ричард Джордан, Бартон Хейман, Гектор Элизондо, Фил Браун, Ральф Браун, Вернер Хассельманн
Продолжительность: 01:30:39
Перевод: Многоголосый закадровый
Субтитры: Отсутствуют

Дата мировой премьеры: 9 апреля 1971
Видеокодек: MPEG-4 AVC/H.264
Битрейт видео: ~1912 Кбит/сек
Размер кадра: 720x384
Качество видео: HDRip
Аудиокодек: AC3 5.0
Битрейт аудио: 384 kbps

MediaInfo:

General
Unique ID : 180186902885535285028338955677325963901 (0x878EBC351BA9FCA9916E825EABADB27D)
Complete name : H:\Downloads\Вальдес идет.mkv
Format : Matroska
Format version : Version 4 / Version 2
File size : 1.45 GiB
Duration : 1h 30mn
Overall bit rate : 2 297 Kbps
Encoded date : UTC 2013-06-23 00:34:39
Writing application : mkvmerge v6.0.0 ('Coming Up For Air') built on Jan 20 2013 09:52:00
Writing library : libebml v1.3.0 + libmatroska v1.4.0
Video
ID : 1
Format : AVC
Format/Info : Advanced Video Codec
Format profile : [url=mailto:[email protected]][email protected][/url]
Format settings, CABAC : Yes
Format settings, ReFrames : 8 frames
Codec ID : V_MPEG4/ISO/AVC
Duration : 1h 30mn
Bit rate : 1 912 Kbps
Width : 720 pixels
Height : 384 pixels
Display aspect ratio : 1.85:1
Frame rate mode : Constant
Frame rate : 23.976 fps
Color space : YUV
Chroma subsampling : 4:2:0
Bit depth : 8 bits
Scan type : Progressive
Bits/(Pixel*Frame) : 0.288
Stream size : 1.18 GiB (81%)
Title : Valdez Is Coming
Writing library : x264 core 125 r2208 d9d2288
Encoding settings : cabac=1 / ref=8 / deblock=1:-1:-1 / analyse=0x3:0x133 / me=umh / subme=9 / psy=1 / psy_rd=1.00:0.10 / mixed_ref=1 / me_range=32 / chroma_me=1 / trellis=2 / 8x8dct=1 / cqm=0 / deadzone=21,11 / fast_pskip=0 / chroma_qp_offset=-3 / threads=6 / lookahead_threads=1 / sliced_threads=0 / nr=0 / decimate=1 / interlaced=0 / bluray_compat=0 / constrained_intra=0 / bframes=3 / b_pyramid=2 / b_adapt=2 / b_bias=0 / direct=3 / weightb=1 / open_gop=0 / weightp=2 / keyint=250 / keyint_min=25 / scenecut=40 / intra_refresh=0 / rc_lookahead=60 / rc=2pass / mbtree=1 / bitrate=1912 / ratetol=1.0 / qcomp=0.60 / qpmin=10 / qpmax=51 / qpstep=4 / cplxblur=20.0 / qblur=0.5 / ip_ratio=1.40 / aq=1:1.00
Language : English
Default : Yes
Forced : No
Audio
ID : 2
Format : AC-3
Format/Info : Audio Coding 3
Mode extension : CM (complete main)
Format settings, Endianness : Big
Codec ID : A_AC3
Duration : 1h 30mn
Bit rate mode : Constant
Bit rate : 384 Kbps
Channel(s) : 5 channels
Channel positions : Front: L C R, Side: L R
Sampling rate : 48.0 KHz
Bit depth : 16 bits
Compression mode : Lossy
Stream size : 249 MiB (17%)
Title : Многоголосый закадровый
Language : Russian
Default : Yes
Forced : No
Скриншоты:          
         
Вне форума [Профиль] [ЛС]
Показать сообщения:    
Ответить на тему

Текущее время: Сегодня 13:16

Часовой пояс: GMT + 3



Вы не можете начинать темы
Вы не можете отвечать на сообщения
Вы не можете редактировать свои сообщения
Вы не можете удалять свои сообщения
Вы не можете голосовать в опросах
Вы не можете прикреплять файлы к сообщениям
Вы не можете скачивать файлы