Сегодня идет свободное скачивание без начисления Download

Поющий по кабакам / Honkytonk Man (Клинт Иствуд) [1982.,Драма, Комедия, Вестерн, Музыка]DVDRip [H.264]

Ответить на тему
 
Автор
Сообщение

sashau ®

Пол:

Стаж: 4 года 11 месяцев

Сообщений: 3785

Торрент-статистика

Пост 23-Июн-2013 15:51

[Цитировать]

Поющий по кабакам / Honkytonk Man -«The boy is on his way to becoming a man. The man is on his way to becoming a legend.»- Русское название: Поющий по кабакам
Оригинальное название: Honkytonk Man
Год выпуска: 1982
Жанр: Драма, Комедия, Вестерн, Музыка
Производство: США/The Malpaso Company
Описание фильма:
Человек может отказаться от всего, но не от мечты. Подросток из семьи фермеров со Среднего Запада Америки начала ХХ-го века не хочет, как его предки, гнуть спину на хлопковых полях. Он мечтает изменить свою жизнь. И готов бороться за свою мечту…
Уит, выросший в семье фермеров-переселенцев, мечтает вырваться из привычной кабалы быта. Случай приводит к ним его дядю по матери Реда Стовэлла — бродягу, выпивоху, талантливого музыканта и певца в стиле «кантри».
Он направляется в город Нэшвилл, где его ждет прослушивание и, возможно, контракт. Это могло бы изменить его жизнь. Ред разглядел в мальчишке задатки музыканта и предлагает Уиту поехать с ним — попытать счастья…
Режиссер: Клинт Иствуд
Сценарий: Клэнси Карлайл
Продюсер: Клинт Иствуд, Фритц Мэйнс
Актеры: Клинт Иствуд, Кайл Иствуд, Джон МакИнтайр, Алекса Кенин, Верна Блум, Мэтт Кларк, Бэрри Корбин, Джерри Хардин, Тим Томерсон, Макон МакКалман
Продолжительность: 02:03:10
Перевод: Одноголосый закадровый

Дата мировой премьеры: 15 декабря 1982
Видеокодек: MPEG-4 AVC/H.264
Битрейт видео: ~1719 Кбит/сек
Размер кадра: 720x400
Качество видео: DVDRip
Аудиокодек: AC3 1.0
Битрейт аудио: 192 kbps

MediaInfo:

Общее
Уникальный идентификатор : 177411810536019246356938276728313534848 (0x857845974D2E16DDB9E51B247BF4D980)
Полное имя : H:\Downloads\Поющий по кабакам.mkv
Формат : Matroska
Размер файла : 1,68 Гбайт
Продолжительность : 2 ч. 3 м.
Общий поток : 1950 Кбит/сек
Дата кодирования : UTC 2013-06-23 02:02:17
Программа кодирования : mkvmerge v6.0.0 ('Coming Up For Air') built on Jan 20 2013 09:52:00
Библиотека кодирования : libebml v1.3.0 + libmatroska v1.4.0
Видео
Идентификатор : 1
Формат : AVC
Формат/Информация : Advanced Video Codec
Профиль формата : [url=mailto:[email protected]][email protected][/url]
Параметр CABAC формата : Да
Параметр ReFrames формата : 8 кадров
Параметры GOP формата : M=4, N=50
Идентификатор кодека : V_MPEG4/ISO/AVC
Продолжительность : 2 ч. 3 м.
Битрейт : 1719 Кбит/сек
Номинальный битрейт : 1500 Кбит/сек
Ширина : 720 пикс.
Высота : 400 пикс.
Соотношение сторон : 16:9
Частота кадров : 23,976 кадр/сек
Цветовое пространство : YUV
Подвыборка цветности : 4:2:0
Битовая глубина : 8 бит
Тип развёртки : Прогрессивная
Бит/(Пиксели*Кадры) : 0.249
Размер потока : 1,48 Гбайт (88%)
Заголовок : Honkytonk Man
Библиотека кодирования : x264 core 125 r2208 d9d2288
Настройки программы : cabac=1 / ref=8 / deblock=1:-1:-1 / analyse=0x3:0x133 / me=umh / subme=9 / psy=1 / psy_rd=1.00:0.10 / mixed_ref=1 / me_range=32 / chroma_me=1 / trellis=2 / 8x8dct=1 / cqm=0 / deadzone=21,11 / fast_pskip=0 / chroma_qp_offset=-3 / threads=6 / lookahead_threads=1 / sliced_threads=0 / nr=0 / decimate=1 / interlaced=0 / bluray_compat=0 / constrained_intra=0 / bframes=3 / b_pyramid=2 / b_adapt=2 / b_bias=0 / direct=3 / weightb=1 / open_gop=0 / weightp=2 / keyint=250 / keyint_min=25 / scenecut=40 / intra_refresh=0 / rc_lookahead=60 / rc=2pass / mbtree=1 / bitrate=1500 / ratetol=1.0 / qcomp=0.60 / qpmin=10 / qpmax=51 / qpstep=4 / cplxblur=20.0 / qblur=0.5 / ip_ratio=1.40 / aq=1:1.00
Язык : English
Аудио
Идентификатор : 2
Формат : AC-3
Формат/Информация : Audio Coding 3
Расширение режима : CM (complete main)
Идентификатор кодека : A_AC3
Продолжительность : 2 ч. 3 м.
Вид битрейта : Постоянный
Битрейт : 192 Кбит/сек
Каналы : 1 канал
Расположение каналов : Front: C
Частота : 48,0 КГц
Битовая глубина : 16 бит
Метод сжатия : С потерями
Размер потока : 169 Мбайт (10%)
Заголовок : Профессиональный (одноголосый)
Язык : Russian
Скриншоты:                    
Вне форума [Профиль] [ЛС]
Показать сообщения:    
Ответить на тему

Текущее время: Сегодня 14:54

Часовой пояс: GMT + 3



Вы не можете начинать темы
Вы не можете отвечать на сообщения
Вы не можете редактировать свои сообщения
Вы не можете удалять свои сообщения
Вы не можете голосовать в опросах
Вы не можете прикреплять файлы к сообщениям
Вы не можете скачивать файлы