Сегодня идет свободное скачивание без начисления Download

Шоа / Shoah (Клод Ланцман / Claude Lanzmann) (Документальный, Военный, 1985) SATRip

Ответить на тему
 
Автор
Сообщение

Omen ®

Стаж: 4 года 1 месяц

Сообщений: 194394

Торрент-статистика

Пост 24-Июн-2013 22:15

[Цитировать]

Шоа / Shoah - Русское название: Шоа
Оригинальное название: Shoah
Страна: Франция
Год выпуска: 1985
Жанр: Документальный, Военный
Описание фильма: Из документальных работ Ланцмана наиболее известен фильм «Шоа» - девятичасовая лента о нацистских лагерях смерти, над которой он начал работать в 1974 и которую выпустил в 1985. Фильм, не использующий письменных и фотографических документов, а опирающийся исключительно на непосредственные свидетельства живых лиц, включая нацистов и тех, кто их поддерживал, стал мировым общественным событием и уникальным кинофактом.
Режиссер: Клод Ланцман / Claude Lanzmann
Актеры: свидетельства живых лиц
Продолжительность: 10x ~00:56:00 + 00:19:36 = 09:14:46
Перевод: Двуголосый закадровый
Автор перевода: Лексикон

Дата мировой премьеры: 23.10.85
Видеокодек: MPEG-2
Битрейт видео: ~3 259 kb/s
Размер кадра: 720 x 576
Качество видео: SATRip
Аудиокодек: MP2, 2.0 ch
Битрейт аудио: 192 kb/s

MediaInfo (параметры всех частей фильма одинаковы)

Код:
General
ID                             : 1 (0x1)
Complete name                  : Y:\!!!!!TORRENT!!!!!\shoah\Lanzman.ts
Format                         : MPEG-TS
File size                      : 351 MiB
Duration                       : 19mn 36s
Overall bit rate mode          : Variable
Overall bit rate               : 2 501 Kbps
Video
ID                             : 324 (0x144)
Menu ID                        : 1 (0x1)
Format                         : MPEG Video
Format version                 : Version 2
Format profile                 : [email protected]
Format settings, BVOP          : Yes
Format settings, Matrix        : Custom
Format settings, GOP           : Variable
Codec ID                       : 2
Duration                       : 19mn 36s
Bit rate mode                  : Variable
Bit rate                       : 2 183 Kbps
Maximum bit rate               : 15.0 Mbps
Width                          : 720 pixels
Height                         : 576 pixels
Display aspect ratio           : 4:3
Frame rate                     : 25.000 fps
Standard                       : PAL
Color space                    : YUV
Chroma subsampling             : 4:2:0
Bit depth                      : 8 bits
Scan type                      : Interlaced
Scan order                     : Top Field First
Compression mode               : Lossy
Bits/(Pixel*Frame)             : 0.211
Stream size                    : 306 MiB (87%)
Audio
ID                             : 404 (0x194)
Menu ID                        : 1 (0x1)
Format                         : MPEG Audio
Format version                 : Version 1
Format profile                 : Layer 2
Codec ID                       : 3
Duration                       : 19mn 36s
Bit rate mode                  : Constant
Bit rate                       : 192 Kbps
Channel(s)                     : 2 channels
Sampling rate                  : 48.0 KHz
Compression mode               : Lossy
Stream size                    : 26.9 MiB (8%)
Language                       : Russian
-
Код:
General
ID                             : 1 (0x1)
Complete name                  : Y:\!!!!!TORRENT!!!!!\shoah\shoah1.ts
Format                         : MPEG-TS
File size                      : 1.43 GiB
Duration                       : 56mn 28s
Overall bit rate mode          : Variable
Overall bit rate               : 3 633 Kbps
Video
ID                             : 324 (0x144)
Menu ID                        : 1 (0x1)
Format                         : MPEG Video
Format version                 : Version 2
Format profile                 : [email protected]
Format settings, BVOP          : Yes
Format settings, Matrix        : Custom
Format settings, GOP           : Variable
Codec ID                       : 2
Duration                       : 56mn 28s
Bit rate mode                  : Variable
Bit rate                       : 3 259 Kbps
Maximum bit rate               : 15.0 Mbps
Width                          : 720 pixels
Height                         : 576 pixels
Display aspect ratio           : 4:3
Frame rate                     : 25.000 fps
Standard                       : PAL
Color space                    : YUV
Chroma subsampling             : 4:2:0
Bit depth                      : 8 bits
Scan type                      : Interlaced
Scan order                     : Top Field First
Compression mode               : Lossy
Bits/(Pixel*Frame)             : 0.314
Stream size                    : 1.29 GiB (90%)
Audio
ID                             : 404 (0x194)
Menu ID                        : 1 (0x1)
Format                         : MPEG Audio
Format version                 : Version 1
Format profile                 : Layer 2
Codec ID                       : 3
Duration                       : 56mn 28s
Bit rate mode                  : Constant
Bit rate                       : 192 Kbps
Channel(s)                     : 2 channels
Sampling rate                  : 48.0 KHz
Compression mode               : Lossy
Stream size                    : 77.6 MiB (5%)
Language                       : Russian
-
Код:
General
ID                             : 1 (0x1)
Complete name                  : Y:\!!!!!TORRENT!!!!!\shoah\shoah2.ts
Format                         : MPEG-TS
File size                      : 1.37 GiB
Duration                       : 53mn 46s
Overall bit rate mode          : Variable
Overall bit rate               : 3 652 Kbps
Video
ID                             : 324 (0x144)
Menu ID                        : 1 (0x1)
Format                         : MPEG Video
Format version                 : Version 2
Format profile                 : [email protected]
Format settings, BVOP          : Yes
Format settings, Matrix        : Custom
Format settings, GOP           : Variable
Codec ID                       : 2
Duration                       : 53mn 46s
Bit rate mode                  : Variable
Bit rate                       : 3 278 Kbps
Maximum bit rate               : 15.0 Mbps
Width                          : 720 pixels
Height                         : 576 pixels
Display aspect ratio           : 4:3
Frame rate                     : 25.000 fps
Standard                       : PAL
Color space                    : YUV
Chroma subsampling             : 4:2:0
Bit depth                      : 8 bits
Scan type                      : Interlaced
Scan order                     : Top Field First
Compression mode               : Lossy
Bits/(Pixel*Frame)             : 0.316
Stream size                    : 1.23 GiB (90%)
Audio
ID                             : 404 (0x194)
Menu ID                        : 1 (0x1)
Format                         : MPEG Audio
Format version                 : Version 1
Format profile                 : Layer 2
Codec ID                       : 3
Duration                       : 53mn 46s
Bit rate mode                  : Constant
Bit rate                       : 192 Kbps
Channel(s)                     : 2 channels
Sampling rate                  : 48.0 KHz
Compression mode               : Lossy
Stream size                    : 73.9 MiB (5%)
Language                       : Russian
-
Код:
General
ID                             : 16 (0x10)
Complete name                  : Y:\!!!!!TORRENT!!!!!\shoah\shoah3.ts
Format                         : MPEG-TS
File size                      : 1.15 GiB
Duration                       : 48mn 41s
Overall bit rate mode          : Variable
Overall bit rate               : 3 381 Kbps
Video
ID                             : 324 (0x144)
Menu ID                        : 16104 (0x3EE8)
Format                         : MPEG Video
Format version                 : Version 2
Format profile                 : [email protected]
Format settings, BVOP          : Yes
Format settings, Matrix        : Custom
Format settings, GOP           : Variable
Codec ID                       : 2
Duration                       : 48mn 40s
Bit rate mode                  : Variable
Bit rate                       : 3 020 Kbps
Maximum bit rate               : 15.0 Mbps
Width                          : 720 pixels
Height                         : 576 pixels
Display aspect ratio           : 4:3
Frame rate                     : 25.000 fps
Standard                       : PAL
Color space                    : YUV
Chroma subsampling             : 4:2:0
Bit depth                      : 8 bits
Scan type                      : Interlaced
Scan order                     : Top Field First
Compression mode               : Lossy
Bits/(Pixel*Frame)             : 0.291
Stream size                    : 1.03 GiB (89%)
Audio
ID                             : 404 (0x194)
Menu ID                        : 16104 (0x3EE8)
Format                         : MPEG Audio
Format version                 : Version 1
Format profile                 : Layer 2
Codec ID                       : 4
Duration                       : 48mn 41s
Bit rate mode                  : Constant
Bit rate                       : 192 Kbps
Channel(s)                     : 2 channels
Sampling rate                  : 48.0 KHz
Compression mode               : Lossy
Delay relative to video        : 120ms
Stream size                    : 66.9 MiB (6%)
Language                       : Russian
Language, more info            : Clean effects
-
Код:
General
ID                             : 1 (0x1)
Complete name                  : Y:\!!!!!TORRENT!!!!!\shoah\shoah4.ts
Format                         : MPEG-TS
File size                      : 1.39 GiB
Duration                       : 53mn 50s
Overall bit rate mode          : Variable
Overall bit rate               : 3 707 Kbps
Video
ID                             : 324 (0x144)
Menu ID                        : 1 (0x1)
Format                         : MPEG Video
Format version                 : Version 2
Format profile                 : [email protected]
Format settings, BVOP          : Yes
Format settings, Matrix        : Custom
Format settings, GOP           : Variable
Codec ID                       : 2
Duration                       : 53mn 50s
Bit rate mode                  : Variable
Bit rate                       : 3 330 Kbps
Maximum bit rate               : 15.0 Mbps
Width                          : 720 pixels
Height                         : 576 pixels
Display aspect ratio           : 4:3
Frame rate                     : 25.000 fps
Standard                       : PAL
Color space                    : YUV
Chroma subsampling             : 4:2:0
Bit depth                      : 8 bits
Scan type                      : Interlaced
Scan order                     : Top Field First
Compression mode               : Lossy
Bits/(Pixel*Frame)             : 0.321
Stream size                    : 1.25 GiB (90%)
Audio
ID                             : 404 (0x194)
Menu ID                        : 1 (0x1)
Format                         : MPEG Audio
Format version                 : Version 1
Format profile                 : Layer 2
Codec ID                       : 3
Duration                       : 53mn 50s
Bit rate mode                  : Constant
Bit rate                       : 192 Kbps
Channel(s)                     : 2 channels
Sampling rate                  : 48.0 KHz
Compression mode               : Lossy
Stream size                    : 73.9 MiB (5%)
Language                       : Russian
-
Код:
General
ID                             : 1 (0x1)
Complete name                  : Y:\!!!!!TORRENT!!!!!\shoah\shoah5.ts
Format                         : MPEG-TS
File size                      : 1.12 GiB
Duration                       : 42mn 56s
Overall bit rate mode          : Variable
Overall bit rate               : 3 744 Kbps
Video
ID                             : 324 (0x144)
Menu ID                        : 1 (0x1)
Format                         : MPEG Video
Format version                 : Version 2
Format profile                 : [email protected]
Format settings, BVOP          : Yes
Format settings, Matrix        : Custom
Format settings, GOP           : Variable
Codec ID                       : 2
Duration                       : 42mn 56s
Bit rate mode                  : Variable
Bit rate                       : 3 365 Kbps
Maximum bit rate               : 15.0 Mbps
Width                          : 720 pixels
Height                         : 576 pixels
Display aspect ratio           : 4:3
Frame rate                     : 25.000 fps
Standard                       : PAL
Color space                    : YUV
Chroma subsampling             : 4:2:0
Bit depth                      : 8 bits
Scan type                      : Interlaced
Scan order                     : Top Field First
Compression mode               : Lossy
Bits/(Pixel*Frame)             : 0.325
Stream size                    : 1.01 GiB (90%)
Audio
ID                             : 404 (0x194)
Menu ID                        : 1 (0x1)
Format                         : MPEG Audio
Format version                 : Version 1
Format profile                 : Layer 2
Codec ID                       : 3
Duration                       : 42mn 56s
Bit rate mode                  : Constant
Bit rate                       : 192 Kbps
Channel(s)                     : 2 channels
Sampling rate                  : 48.0 KHz
Compression mode               : Lossy
Stream size                    : 59.0 MiB (5%)
Language                       : Russian
-
Код:
General
ID                             : 16 (0x10)
Complete name                  : Y:\!!!!!TORRENT!!!!!\shoah\shoah6.ts
Format                         : MPEG-TS
File size                      : 1.32 GiB
Duration                       : 49mn 33s
Overall bit rate mode          : Variable
Overall bit rate               : 3 806 Kbps
Video
ID                             : 324 (0x144)
Menu ID                        : 16104 (0x3EE8)
Format                         : MPEG Video
Format version                 : Version 2
Format profile                 : [email protected]
Format settings, BVOP          : Yes
Format settings, Matrix        : Custom
Codec ID                       : 2
Duration                       : 49mn 33s
Bit rate mode                  : Variable
Bit rate                       : 3 424 Kbps
Maximum bit rate               : 15.0 Mbps
Width                          : 720 pixels
Height                         : 576 pixels
Display aspect ratio           : 4:3
Frame rate                     : 25.000 fps
Standard                       : PAL
Color space                    : YUV
Chroma subsampling             : 4:2:0
Bit depth                      : 8 bits
Scan type                      : Interlaced
Scan order                     : Top Field First
Compression mode               : Lossy
Bits/(Pixel*Frame)             : 0.330
Stream size                    : 1.19 GiB (90%)
Audio
ID                             : 404 (0x194)
Menu ID                        : 16104 (0x3EE8)
Format                         : MPEG Audio
Format version                 : Version 1
Format profile                 : Layer 2
Codec ID                       : 4
Duration                       : 49mn 33s
Bit rate mode                  : Constant
Bit rate                       : 192 Kbps
Channel(s)                     : 2 channels
Sampling rate                  : 48.0 KHz
Compression mode               : Lossy
Delay relative to video        : 24ms
Stream size                    : 68.1 MiB (5%)
Language                       : Russian
Language, more info            : Clean effects
-
Код:
General
ID                             : 16 (0x10)
Complete name                  : Y:\!!!!!TORRENT!!!!!\shoah\shoah7.ts
Format                         : MPEG-TS
File size                      : 1.43 GiB
Duration                       : 56mn 14s
Overall bit rate mode          : Variable
Overall bit rate               : 3 651 Kbps
Video
ID                             : 324 (0x144)
Menu ID                        : 16104 (0x3EE8)
Format                         : MPEG Video
Format version                 : Version 2
Format profile                 : [email protected]
Format settings, BVOP          : Yes
Format settings, Matrix        : Custom
Format settings, GOP           : Variable
Codec ID                       : 2
Duration                       : 56mn 13s
Bit rate mode                  : Variable
Bit rate                       : 3 277 Kbps
Maximum bit rate               : 15.0 Mbps
Width                          : 720 pixels
Height                         : 576 pixels
Display aspect ratio           : 4:3
Frame rate                     : 25.000 fps
Standard                       : PAL
Color space                    : YUV
Chroma subsampling             : 4:2:0
Bit depth                      : 8 bits
Scan type                      : Interlaced
Scan order                     : Top Field First
Compression mode               : Lossy
Bits/(Pixel*Frame)             : 0.316
Stream size                    : 1.29 GiB (90%)
Audio
ID                             : 404 (0x194)
Menu ID                        : 16104 (0x3EE8)
Format                         : MPEG Audio
Format version                 : Version 1
Format profile                 : Layer 2
Codec ID                       : 4
Duration                       : 56mn 13s
Bit rate mode                  : Constant
Bit rate                       : 192 Kbps
Channel(s)                     : 2 channels
Sampling rate                  : 48.0 KHz
Compression mode               : Lossy
Delay relative to video        : 68ms
Stream size                    : 77.2 MiB (5%)
Language                       : Russian
Language, more info            : Clean effects
-
Код:
General
ID                             : 16 (0x10)
Complete name                  : Y:\!!!!!TORRENT!!!!!\shoah\shoah8.ts
Format                         : MPEG-TS
File size                      : 1.73 GiB
Duration                       : 48ms
Overall bit rate mode          : Variable
Overall bit rate               : 0 bps
Video
ID                             : 324 (0x144)
Menu ID                        : 16104 (0x3EE8)
Format                         : MPEG Video
Format version                 : Version 2
Format profile                 : [email protected]
Format settings, BVOP          : Yes
Format settings, Matrix        : Custom
Codec ID                       : 2
Duration                       : 40ms
Bit rate mode                  : Variable
Maximum bit rate               : 15.0 Mbps
Width                          : 720 pixels
Height                         : 576 pixels
Display aspect ratio           : 4:3
Frame rate                     : 25.000 fps
Standard                       : PAL
Color space                    : YUV
Chroma subsampling             : 4:2:0
Bit depth                      : 8 bits
Scan type                      : Interlaced
Scan order                     : Top Field First
Compression mode               : Lossy
Audio
ID                             : 404 (0x194)
Menu ID                        : 16104 (0x3EE8)
Format                         : MPEG Audio
Format version                 : Version 1
Format profile                 : Layer 2
Codec ID                       : 4
Duration                       : 48ms
Bit rate mode                  : Constant
Bit rate                       : 192 Kbps
Channel(s)                     : 2 channels
Sampling rate                  : 48.0 KHz
Compression mode               : Lossy
Stream size                    : 1.13 KiB (0%)
Language                       : Russian
Language, more info            : Clean effects
-
Код:
General
ID                             : 16 (0x10)
Complete name                  : Y:\!!!!!TORRENT!!!!!\shoah\shoah9.ts
Format                         : MPEG-TS
File size                      : 1.25 GiB
Duration                       : 48ms
Overall bit rate               : 0 bps
Video
ID                             : 324 (0x144)
Menu ID                        : 16104 (0x3EE8)
Format                         : MPEG Video
Codec ID                       : 2
Compression mode               : Lossy
Audio
ID                             : 404 (0x194)
Menu ID                        : 16104 (0x3EE8)
Format                         : MPEG Audio
Format version                 : Version 1
Format profile                 : Layer 2
Codec ID                       : 4
Duration                       : 48ms
Bit rate mode                  : Constant
Bit rate                       : 192 Kbps
Channel(s)                     : 2 channels
Sampling rate                  : 48.0 KHz
Compression mode               : Lossy
Stream size                    : 1.13 KiB (0%)
Language                       : Russian
Language, more info            : Clean effects
-
Код:
General
ID                             : 1 (0x1)
Complete name                  : Y:\!!!!!TORRENT!!!!!\shoah\shoah10.ts
Format                         : MPEG-TS
File size                      : 1.54 GiB
Duration                       : 1h 2mn
Overall bit rate mode          : Variable
Overall bit rate               : 3 522 Kbps
Video
ID                             : 324 (0x144)
Menu ID                        : 1 (0x1)
Format                         : MPEG Video
Format version                 : Version 2
Format profile                 : [email protected]
Format settings, BVOP          : Yes
Format settings, Matrix        : Custom
Format settings, GOP           : Variable
Codec ID                       : 2
Duration                       : 1h 2mn
Bit rate mode                  : Variable
Bit rate                       : 3 154 Kbps
Maximum bit rate               : 15.0 Mbps
Width                          : 720 pixels
Height                         : 576 pixels
Display aspect ratio           : 4:3
Frame rate                     : 25.000 fps
Standard                       : PAL
Color space                    : YUV
Chroma subsampling             : 4:2:0
Bit depth                      : 8 bits
Scan type                      : Interlaced
Scan order                     : Top Field First
Compression mode               : Lossy
Bits/(Pixel*Frame)             : 0.304
Stream size                    : 1.38 GiB (90%)
Audio
ID                             : 404 (0x194)
Menu ID                        : 1 (0x1)
Format                         : MPEG Audio
Format version                 : Version 1
Format profile                 : Layer 2
Codec ID                       : 3
Duration                       : 1h 2mn
Bit rate mode                  : Constant
Bit rate                       : 192 Kbps
Channel(s)                     : 2 channels
Sampling rate                  : 48.0 KHz
Compression mode               : Lossy
Stream size                    : 85.9 MiB (5%)
Language                       : Russian
Скриншоты:
       
Вне форума [Профиль] [ЛС]
Показать сообщения:    
Ответить на тему

Текущее время: Сегодня 15:08

Часовой пояс: GMT + 3



Вы не можете начинать темы
Вы не можете отвечать на сообщения
Вы не можете редактировать свои сообщения
Вы не можете удалять свои сообщения
Вы не можете голосовать в опросах
Вы не можете прикреплять файлы к сообщениям
Вы не можете скачивать файлы