Сегодня идет свободное скачивание без начисления Download

Превратности любви / Playing by Heart (Уиллард Кэрролл) (Драма, Мелодрама, Комедия1998) BDRip [H.264]

Ответить на тему
 
Автор
Сообщение

Omen ®

Стаж: 4 года 1 месяц

Сообщений: 194382

Торрент-статистика

Пост 25-Июн-2013 12:39

[Цитировать]

Превратности любви / Playing by Heart -«The sexy comedy with a twist.»- Русское название: Превратности любви
Оригинальное название: Playing by Heart
Год выпуска: 1998
Жанр: Драма, Мелодрама, Комедия
Производство: Великобритания, США/Hyperion Pictures, Intermedia Films, Miramax Films, Morpheus
Описание фильма:
Два клаббера, повстречавшиеся в ночном клубе. Пожилая пара, заново дающая друг другу обет. Антисоциальная женщина, принимающая приглашение на свидание от незнакомца. Парень, умирающий от СПИДа, и его мать, не желавшая принять сына из-за его гомосексуальности. Пара, у которой затягивается роман. И мужчина, бродящий по барам и рассказывающий там о своих несчастьях.
Шесть совершенно непохожих друг на друга и не взаимосвязанных историй постепенно сплетутся воедино…
Режиссер: Уиллард Кэрролл
Сценарий: Уиллард Кэрролл
Продюсер: Уиллард Кэрролл, Мэг Либерман, Томас Л. Уилхайт
Актеры: Анджелина Джоли, Шон Коннери, Джина Роулендс, Джиллиан Андерсон, Мэделин Стоу, Райан Филипп, Деннис Куэйд, Кристиан Миллс, Келли Уэймайр, Эйприл Грэйс
Продолжительность: 02:00:46
Перевод: Многоголосый закадровый

Дата мировой премьеры: 18 декабря 1998
Видеокодек: MPEG-4 AVC/H.264
Битрейт видео: ~2136 Кбит/сек
Размер кадра: 1024x528
Качество видео: BDRip
Аудиокодек: AC3 5.1
Битрейт аудио: 448 Кбит/сек

Реценция с кинопоиска от Holden Caulfield:

Несколько связанных воедино историй о любви, взаимопонимании, о том, как важно в этом мире найти свою вторую половинку, избавившись от одиночества.
Игра актеров не вызывает нареканий, да и как можно придираться к Шону Коннери, Джине Роулендс, Анжелине Джоли, Райану Филиппу, Джилиан Андерсон и Дэннису Куэйду?
В целом, картина весьма достойная того, чтобы её время от времени пересматривать. Кому-то, может быть, она запомнится на всю жизнь, как и мне.
Увы, замечательная «Реальная любовь», появившаяся на пять лет позже, такого же эффекта на меня не произвела. Потому что не блистала большой оригинальностью, а во время просмотра подсознание постоянно проводило сравнение с «Превратностями любви».

Награды:

Берлинский кинофестиваль, 1999 год
Номинации (1):
Золотой Медведь

MediaInfo:

Общее
Уникальный идентификатор : 235541938549437848801492999572537542198 (0xB133BA2DC9339A4680A1BC71DA690636)
Полное имя : H:\Downloads\Превратности любви.mkv
Формат : Matroska
Размер файла : 2,18 Гбайт
Продолжительность : 2 ч. 0 м.
Общий поток : 2586 Кбит/сек
Дата кодирования : UTC 2013-06-23 10:57:10
Программа кодирования : mkvmerge v6.0.0 ('Coming Up For Air') built on Jan 20 2013 09:52:00
Библиотека кодирования : libebml v1.3.0 + libmatroska v1.4.0
Видео
Идентификатор : 1
Формат : AVC
Формат/Информация : Advanced Video Codec
Профиль формата : [url=mailto:[email protected]][email protected][/url]
Параметр CABAC формата : Да
Параметр ReFrames формата : 8 кадров
Идентификатор кодека : V_MPEG4/ISO/AVC
Продолжительность : 2 ч. 0 м.
Битрейт : 2136 Кбит/сек
Ширина : 1024 пикс.
Высота : 528 пикс.
Соотношение сторон : 1,939
Частота кадров : 24,000 кадр/сек
Цветовое пространство : YUV
Подвыборка цветности : 4:2:0
Битовая глубина : 8 бит
Тип развёртки : Прогрессивная
Бит/(Пиксели*Кадры) : 0.165
Размер потока : 1,76 Гбайт (81%)
Заголовок : Playing by Heart
Библиотека кодирования : x264 core 125 r2208 d9d2288
Настройки программы : cabac=1 / ref=8 / deblock=1:-1:-1 / analyse=0x3:0x133 / me=umh / subme=9 / psy=1 / psy_rd=1.00:0.10 / mixed_ref=1 / me_range=32 / chroma_me=1 / trellis=2 / 8x8dct=1 / cqm=0 / deadzone=21,11 / fast_pskip=0 / chroma_qp_offset=-3 / threads=6 / lookahead_threads=1 / sliced_threads=0 / nr=0 / decimate=1 / interlaced=0 / bluray_compat=0 / constrained_intra=0 / bframes=3 / b_pyramid=2 / b_adapt=2 / b_bias=0 / direct=3 / weightb=1 / open_gop=0 / weightp=2 / keyint=250 / keyint_min=25 / scenecut=40 / intra_refresh=0 / rc_lookahead=60 / rc=2pass / mbtree=1 / bitrate=2136 / ratetol=1.0 / qcomp=0.60 / qpmin=10 / qpmax=51 / qpstep=4 / cplxblur=20.0 / qblur=0.5 / ip_ratio=1.40 / aq=1:1.00
Язык : English
Аудио
Идентификатор : 2
Формат : AC-3
Формат/Информация : Audio Coding 3
Расширение режима : CM (complete main)
Идентификатор кодека : A_AC3
Продолжительность : 2 ч. 0 м.
Вид битрейта : Постоянный
Битрейт : 448 Кбит/сек
Каналы : 6 каналов
Расположение каналов : Front: L C R, Side: L R, LFE
Частота : 48,0 КГц
Битовая глубина : 16 бит
Метод сжатия : С потерями
Размер потока : 387 Мбайт (17%)
Заголовок : Профессиональный многоголосый
Язык : Russian
Скриншоты:          
         
Вне форума [Профиль] [ЛС]
Похожие темы
Форум Тема Автор Торрент Отв. Посл. сообщение
./templates/default/images/folder_dl.gif Приключения, детектив, боевик, триллер Кристи Агата - Превратности судьбы [Ерисанова Ирина, 2013 г., 96 kbps, MP3] Omen
1 | 0

0 | 395

8

2015-08-05 09:50
Omen Последнее
Показать сообщения:    
Ответить на тему

Текущее время: Сегодня 20:25

Часовой пояс: GMT + 3



Вы не можете начинать темы
Вы не можете отвечать на сообщения
Вы не можете редактировать свои сообщения
Вы не можете удалять свои сообщения
Вы не можете голосовать в опросах
Вы не можете прикреплять файлы к сообщениям
Вы не можете скачивать файлы