Сегодня идет свободное скачивание без начисления Download

Горец 3: Последнее измерение / Highlander III: The Sorcerer (Эндрю Морахэн) (Боевик, Фантастика, Фэнтези, 1994) HDRip

Ответить на тему
 
Автор
Сообщение

Omen ®

Стаж: 4 года 1 месяц

Сообщений: 194359

Торрент-статистика

Пост 25-Июн-2013 12:43

[Цитировать]

Горец 3: Последнее измерение
Highlander III: The Sorcerer
- Русское название: Горец 3: Последнее измерение
Оригинальное название: Highlander III: The Sorcerer
Год выпуска: 1994
Жанр: Боевик, Фантастика, Фэнтези
Производство: Канада, Франция, Великобритания, Fallingcloud, Initial Groupe, Lumière Pictures
Описание фильма:
Бессмертный воин Коннор Маклауд вновь вызван на поединок, на этот раз своим самым могущественным врагом, Колдуном Кейном, заточенным под мистической горой в Японии 300 лет назад и достигшим невероятной магической силы.Ничего не подозревающие археологи освобождают Кейна. Для того, чтобы править миром колдуну нужна магическая энергия, которую он сможет получить только убив Горца. Маклауд скрывается в родные горы Шотландии, чтобы подготовиться к решающей битве и выковать новый меч в старинной кузнице.Он встречает Алекс, ученую из музея Античной Истории. Много лет назад в другой жизни Алекс и Маклауд любили друг друга. Алекс пытается его поддержать, окончательно разгадав мистическое предназначение сражения Горца с Колдуном, которое может положить конец вечной войне за магическую энергию, сверхъестественное могущество и абсолютную власть над миром.
Режиссер: Эндрю Морахэн
Актеры: Кристофер Ламберт, Марио Ван Пиблз, Дебора Кара Ангер, Мако, Рауль Трухильо, Мартин Неуфелд, Фредерик Й. Окимура, Дэниэл До
Продолжительность: 01:38:53
Перевод: Многоголосый закадровый
Язык субтитров: отсутствуют
Автор:
Дата мировой премьеры: 30 ноября 1994
Видеокодек: Xvid
Битрейт видео: ~2749 Кбит/сек
Размер кадра: 720 х 304
Качество видео: HDRip (Исходник BDRip 720p)
Аудиокодек: AC3 5.1
Битрейт аудио: 384 Кбит/сек

MediaInfo:

Формат : AVI
Формат/Информация : Audio Video Interleave
Профиль формата : OpenDML
Размер файла : 2,17 Гбайт
Продолжительность : 1 ч. 38 м.
Общий поток : 3144 Кбит/сек
Программа кодирования : VirtualDubModRus 1.5.10.2 (build 2542/release)
Библиотека кодирования : VirtualDubMod build 2542/release
Видео
Идентификатор : 0
Формат : MPEG-4 Visual
Профиль формата : Advanced [email protected]
Параметр BVOP формата : 1
Параметр QPel формата : Нет
Параметр GMC формата : Без точки перехода
Параметр матрицы формата : Default (MPEG)
Идентификатор кодека : XVID
Идентификатор кодека/Подсказка : XviD
Продолжительность : 1 ч. 38 м.
Битрейт : 2749 Кбит/сек
Ширина : 720 пикселей
Высота : 304 пикселя
Соотношение сторон : 2,35:1
Частота кадров : 23,976 кадра/сек
Цветовое пространство : YUV
Субдискретизация насыщенности : 4:2:0
Битовая глубина : 8 бит
Тип развёртки : Прогрессивная
Метод сжатия : С потерями
Бит/(Пиксели*Кадры) : 0.524
Размер потока : 1,90 Гбайт (87%)
Библиотека кодирования : XviD 1.2.1 (UTC 2008-12-04)
Аудио
Идентификатор : 1
Формат : AC-3
Формат/Информация : Audio Coding 3
Расширение режима : CM (complete main)
Параметр Endianness формата : Big
Идентификатор кодека : 2000
Продолжительность : 1 ч. 38 м.
Вид битрейта : Постоянный
Битрейт : 384 Кбит/сек
Каналы : 6 каналов
Расположение каналов : Front: L C R, Side: L R, LFE
Частота : 48,0 КГц
Битовая глубина : 16 бит
Метод сжатия : С потерями
Размер потока : 271 Мбайт (12%)
Выравнивание : Разделение по промежуткам
Продолжительность промежутка : 42 мс. (1,00 видеокадр)
Время предзагрузки промежутка : 500 мс.
Скриншоты:
         
         
Вне форума [Профиль] [ЛС]
Показать сообщения:    
Ответить на тему

Текущее время: Сегодня 05:10

Часовой пояс: GMT + 3



Вы не можете начинать темы
Вы не можете отвечать на сообщения
Вы не можете редактировать свои сообщения
Вы не можете удалять свои сообщения
Вы не можете голосовать в опросах
Вы не можете прикреплять файлы к сообщениям
Вы не можете скачивать файлы