Сегодня идет свободное скачивание без начисления Download

Соло / Solo (Норберто Барба) (Боевик, Фантастика, 1996) DVDRip

Ответить на тему
 
Автор
Сообщение

Omen ®

Стаж: 4 года 1 месяц

Сообщений: 194382

Торрент-статистика

Пост 25-Июн-2013 21:52

[Цитировать]

Соло / Solo - Год выпуска: 1996
Жанр: Боевик, Фантастика
Описание фильма:
Он — универсальный солдат, способный сражаться и побеждать в любых условиях. У него нет семьи, нет друзей. Он похож на человека, но сделан из полимеров и микросхем. Он — Соло, машина единственной программой — убивать.
Но программа дает сбой. Соло начинает думать как человек. У него появляются человеческие чувства и друзья. Но жестокие военные, создавшие. Соло, объявляют на него охоту. И Соло начинает беспощадную войну.
Режиссер: Норберто Барба
Актеры: Марио Ван Пиблз, Бэрри Корбин, Уильям Сэдлер, Хайме Гомес, Демиан Бишир, Сейди Лопез, Абрахам Вердуско, Хоакин Гарридо, Уильям Уоллес, Эдриан Броуди
Продолжительность: 01:34:03
Качество видео: DVDRip
Перевод: Многоголосый закадровый

Дата мировой премьеры: 23/08/1996
Видеокодек: Xvid
Битрейт видео: ~2006 Кбит/с
Размер кадра: 720x400
Аудиокодек: MP3, 2 канала
Битрейт аудио: 160 Кбит/с

MI

Видео
Идентификатор : 0
Формат : MPEG-4 Visual
Профиль формата : Advanced [email protected]
Параметр BVOP формата : 1
Параметр QPel формата : Нет
Параметр GMC формата : Без точки перехода
Параметр матрицы формата : Выборочная
Идентификатор кодека : XVID
Идентификатор кодека/Подсказка : XviD
Продолжительность : 1 ч. 30 м.
Битрейт : 2006 Кбит/сек
Ширина : 720 пикс.
Высота : 400 пикс.
Соотношение сторон : 16:9
Частота кадров : 25,000 кадр/сек
Цветовое пространство : YUV
Подвыборка цветности : 4:2:0
Битовая глубина : 8 бит
Тип развёртки : Прогрессивная
Метод сжатия : С потерями
Бит/(Пиксели*Кадры) : 0.279
Размер потока : 1,26 Гбайт (92%)
Библиотека кодирования : XviD 1.2.0.dev47 (UTC 2006-11-01)
Аудио
Идентификатор : 1
Формат : MPEG Audio
Версия формата : Version 1
Профиль формата : Layer 3
Режим : Joint stereo
Расширение режима : MS Stereo
Идентификатор кодека : 55
Идентификатор кодека/Подсказка : MP3
Продолжительность : 1 ч. 30 м.
Вид битрейта : Постоянный
Битрейт : 160 Кбит/сек
Канал(ы) : 2 канала(ов)
Частота : 48,0 КГц
Метод сжатия : С потерями
Размер потока : 103 Мбайт (7%)
Выравнивание : Соединение по промежуткам
Продолжительность промежутка : 80 мс. (2,00 видеокадров)
Время предзагрузки промежутка : 504 ms
Библиотека кодирования : LAME3.97b
Настройки программы : -m j -V 4 -q 2 -lowpass 17.5 -b 160
       
Вне форума [Профиль] [ЛС]
Показать сообщения:    
Ответить на тему

Текущее время: Сегодня 17:34

Часовой пояс: GMT + 3



Вы не можете начинать темы
Вы не можете отвечать на сообщения
Вы не можете редактировать свои сообщения
Вы не можете удалять свои сообщения
Вы не можете голосовать в опросах
Вы не можете прикреплять файлы к сообщениям
Вы не можете скачивать файлы