Сегодня идет свободное скачивание без начисления Download

День женщины /Я плюю на твою могилу / Day of the Woman/I Spit On Your Grave (Мейр Зарки) (Ужасы, Триллер, Криминал, 1978) HDRip [H.264]

Ответить на тему
 
Автор
Сообщение

Omen ®

Стаж: 4 года 1 месяц

Сообщений: 194382

Торрент-статистика

Пост 25-Июн-2013 22:02

[Цитировать]

День женщины /Я плюю на твою могилу
Day of the Woman/I Spit On Your Grave
- Русское название: День женщины /Я плюю на твою могилу
Оригинальное название: Day of the Woman/I Spit On Your Grave
Год выпуска: 1978
Жанр: Ужасы, Триллер, Криминал
Страна: США
Производство: Cinemagic Pictures
Описание фильма:
Молодая симпатичная девушка по имени Дженнифер приезжает в свой загородный дом, чтобы провести там лето, подальше от городской суеты Нью-Йорка. Недалеко от дома она заправляется на здешней бензоколонке, где работают трое типов. Связанный с этими «товарищами», местный дурачок-очкарик приносит продукты в дом этой женщины. Затем он рассказывает о ней этой троице.
Дженнифер, тем временем, становится объектом воздыхания для голодных до соблазнительных незнакомок заправщиков. Вначале её мирный отдых был нарушен, когда она лежала в бикини в гамаке. Но в следующий раз всё оказалось серьёзнее — эти трое преступников подцепили её лодку и притащили на своём катере к берегу, где сначала зло подшучивали, а затем, по мере распыления от вида женщины в бикини, стали её по очереди насиловать, давая той периодически отбегать на некоторое расстояние.
Всё закончилось в доме Дженнифер, где они дали задание дурачку (а его тоже взяли для компании, якобы, чтобы он лишился девственности) убить ножом всю избитую, измученную насилием женщину. Но дурачок не решился на убийство, а вымазал кровью нож и сказал этим троим, что убил её.
Проходит время, а отморозки волнуются, почему же нет новостей, никто не находит труп, который, по идее, уже должен разлагаться. Но оставшаяся в живых Дженнифер приготовила всем четверым подарочек — кровавую месть...
*ВНИМАНИЕ!!! Ненормативная лексика. Фильм содержит шокирующие сцены насилия и жестокости!!!
Режиссер: Мейр Зарки
Сценарий: Мейр Зарки
Продюсер: Мейр Зарки, Джозеф Збеда
Актеры: Камилль Китон, Эрон Табор, Ричард Паке, Энтони Николс, Гюнтер Климанн, Алексис Магнотти, Тэмми Зарки, Терри Зарки, Трэйси Ферранте, Уильям Тасгал
Продолжительность: 01:48:18
Качество видео: HDRip
Перевод: Одноголосый закадровый (Антон Алексеев)
Субтитры: Отсутствуют

Дата мировой премьеры: 23 мая 1978
Видеокодек: MPEG-4 AVC/H.264
Битрейт видео: ~2280 Кбит/сек
Размер кадра: 720x400
Аудиокодек: AC3 2.0
Битрейт аудио: 192 kbps

MediaInfo:

Общее
Уникальный идентификатор : 244833191994239961647465754307029043393 (0xB83128576F84715EA3975BCDBA6F08C1)
Полное имя : H:\Downloads\День женщины.mkv
Формат : Matroska
Размер файла : 1,75 Гбайт
Продолжительность : 1 ч. 41 м.
Общий поток : 2474 Кбит/сек
Название фильма : Day.of.the.Woman.1978.x264.BDRip.1080p.NovaLan
Дата кодирования : UTC 2013-06-24 08:40:20
Программа кодирования : mkvmerge v6.0.0 ('Coming Up For Air') built on Jan 20 2013 09:52:00
Библиотека кодирования : libebml v1.3.0 + libmatroska v1.4.0
Видео
Идентификатор : 1
Формат : AVC
Формат/Информация : Advanced Video Codec
Профиль формата : [url=mailto:[email protected]][email protected][/url]
Параметр CABAC формата : Да
Параметр ReFrames формата : 8 кадров
Параметры GOP формата : M=4, N=47
Идентификатор кодека : V_MPEG4/ISO/AVC
Продолжительность : 1 ч. 41 м.
Битрейт : 2280 Кбит/сек
Ширина : 720 пикс.
Высота : 400 пикс.
Соотношение сторон : 16:9
Частота кадров : 23,976 кадр/сек
Цветовое пространство : YUV
Подвыборка цветности : 4:2:0
Битовая глубина : 8 бит
Тип развёртки : Прогрессивная
Бит/(Пиксели*Кадры) : 0.330
Размер потока : 1,58 Гбайт (90%)
Заголовок : Day of the Woman
Библиотека кодирования : x264 core 125 r2208 d9d2288
Настройки программы : cabac=1 / ref=8 / deblock=1:-1:-1 / analyse=0x3:0x133 / me=umh / subme=9 / psy=1 / psy_rd=1.00:0.10 / mixed_ref=1 / me_range=32 / chroma_me=1 / trellis=2 / 8x8dct=1 / cqm=0 / deadzone=21,11 / fast_pskip=0 / chroma_qp_offset=-3 / threads=6 / lookahead_threads=1 / sliced_threads=0 / nr=0 / decimate=1 / interlaced=0 / bluray_compat=0 / constrained_intra=0 / bframes=3 / b_pyramid=2 / b_adapt=2 / b_bias=0 / direct=3 / weightb=1 / open_gop=0 / weightp=2 / keyint=250 / keyint_min=25 / scenecut=40 / intra_refresh=0 / rc_lookahead=60 / rc=2pass / mbtree=1 / bitrate=2280 / ratetol=1.0 / qcomp=0.60 / qpmin=10 / qpmax=51 / qpstep=4 / cplxblur=20.0 / qblur=0.5 / ip_ratio=1.40 / aq=1:1.00
Язык : English
Аудио
Идентификатор : 2
Формат : AC-3
Формат/Информация : Audio Coding 3
Расширение режима : CM (complete main)
Идентификатор кодека : A_AC3
Продолжительность : 1 ч. 41 м.
Вид битрейта : Постоянный
Битрейт : 192 Кбит/сек
Каналы : 2 канала
Расположение каналов : Front: L R
Частота : 48,0 КГц
Битовая глубина : 16 бит
Метод сжатия : С потерями
Размер потока : 139 Мбайт (8%)
Заголовок : Авторский (одноголосый закадровый) Антон Алексеев
Язык : Russian
Скриншоты:                    
Вне форума [Профиль] [ЛС]
Показать сообщения:    
Ответить на тему

Текущее время: Сегодня 22:20

Часовой пояс: GMT + 3



Вы не можете начинать темы
Вы не можете отвечать на сообщения
Вы не можете редактировать свои сообщения
Вы не можете удалять свои сообщения
Вы не можете голосовать в опросах
Вы не можете прикреплять файлы к сообщениям
Вы не можете скачивать файлы