Сегодня идет свободное скачивание без начисления Download

Добрейшее создание / Buona come il pane (Риккардо Сесани) (Комедия, 1981) DVDRip [H.264]

Ответить на тему
 
Автор
Сообщение

Omen ®

Стаж: 4 года 1 месяц

Сообщений: 194394

Торрент-статистика

Пост 27-Июн-2013 20:47

[Цитировать]

Добрейшее создание
Buona come il pane
- Год выпуска: 1981
Жанр: Комедия
Производство: Италия / Leader Cinematografica
Описание фильма:
Красивая и сердечная девушка Чинция с грацией выполняет самую древнюю профессию в мире, имея свой определенный, небольшой круг постоянных клиентов. Которые в замен просят лишь немного чувства и хорошую дозу веселья. И все бы ни чего, но Чинция несчастна в любви, так как не может найти свою единственную вторую половинку.
Режиссер: Риккардо Сесани
Сценарий: Франко Буччери, Роберто Леони
Актеры: Кармен Руссо, Саверио Маркони, Ада Пометти, Умберто Рахо, Джулиан Дженкинс, Джефри Коплстон, Ренато Чеккетто, Джанфранко Барра
Продолжительность: 01:21:39
Качество видео: DVDRip
Перевод: Одноголосый закадровый (Андрей Мудров)

Видеокодек: MPEG-4 AVC/H.264
Битрейт видео: ~2250 Кбит/сек
Размер кадра: 720x400
Аудиокодек: AC3 2.0
Битрейт аудио: 160 kbps

MediaInfo:

Общее
Уникальный идентификатор : 207605397672532232482754202380821472730 (0x9C2F585EFCD01E3695D6272F84E625DA)
Полное имя : H:\Downloads\Добрейшее создание.mkv
Формат : Matroska
Размер файла : 1,38 Гбайт
Продолжительность : 1 ч. 21 м.
Общий поток : 2412 Кбит/сек
Дата кодирования : UTC 2013-06-25 09:56:22
Программа кодирования : mkvmerge v6.0.0 ('Coming Up For Air') built on Jan 20 2013 09:52:00
Библиотека кодирования : libebml v1.3.0 + libmatroska v1.4.0
Видео
Идентификатор : 1
Формат : AVC
Формат/Информация : Advanced Video Codec
Профиль формата : [url=mailto:[email protected]][email protected][/url]
Параметр CABAC формата : Да
Параметр ReFrames формата : 8 кадров
Идентификатор кодека : V_MPEG4/ISO/AVC
Продолжительность : 1 ч. 21 м.
Битрейт : 2250 Кбит/сек
Ширина : 720 пикс.
Высота : 400 пикс.
Соотношение сторон : 16:9
Частота кадров : 25,000 кадр/сек
Цветовое пространство : YUV
Подвыборка цветности : 4:2:0
Битовая глубина : 8 бит
Тип развёртки : Прогрессивная
Бит/(Пиксели*Кадры) : 0.313
Размер потока : 1,26 Гбайт (91%)
Заголовок : Buona Come Il Pane
Библиотека кодирования : x264 core 125 r2208 d9d2288
Настройки программы : cabac=1 / ref=8 / deblock=1:-1:-1 / analyse=0x3:0x133 / me=umh / subme=9 / psy=1 / psy_rd=1.00:0.10 / mixed_ref=1 / me_range=32 / chroma_me=1 / trellis=2 / 8x8dct=1 / cqm=0 / deadzone=21,11 / fast_pskip=0 / chroma_qp_offset=-3 / threads=6 / lookahead_threads=1 / sliced_threads=0 / nr=0 / decimate=1 / interlaced=0 / bluray_compat=0 / constrained_intra=0 / bframes=3 / b_pyramid=2 / b_adapt=2 / b_bias=0 / direct=3 / weightb=1 / open_gop=0 / weightp=2 / keyint=250 / keyint_min=25 / scenecut=40 / intra_refresh=0 / rc_lookahead=60 / rc=2pass / mbtree=1 / bitrate=2250 / ratetol=1.0 / qcomp=0.60 / qpmin=10 / qpmax=51 / qpstep=4 / cplxblur=20.0 / qblur=0.5 / ip_ratio=1.40 / aq=1:1.00
Язык : Italian
Аудио
Идентификатор : 2
Формат : AC-3
Формат/Информация : Audio Coding 3
Расширение режима : CM (complete main)
Идентификатор кодека : A_AC3
Продолжительность : 1 ч. 21 м.
Вид битрейта : Постоянный
Битрейт : 160 Кбит/сек
Каналы : 2 канала
Расположение каналов : Front: L R
Частота : 48,0 КГц
Битовая глубина : 16 бит
Метод сжатия : С потерями
Размер потока : 93,5 Мбайт (7%)
Заголовок : Авторский (одноголосый) Мудров
Язык : Russian
Скриншоты:                    
Вне форума [Профиль] [ЛС]
Показать сообщения:    
Ответить на тему

Текущее время: Сегодня 09:47

Часовой пояс: GMT + 3



Вы не можете начинать темы
Вы не можете отвечать на сообщения
Вы не можете редактировать свои сообщения
Вы не можете удалять свои сообщения
Вы не можете голосовать в опросах
Вы не можете прикреплять файлы к сообщениям
Вы не можете скачивать файлы