Сегодня идет свободное скачивание без начисления Download

Звездные войны: Эпизод 1 – Скрытая угроза / Star Wars: Episode 1 - The Phantom Menace (Джордж Лукас) (Боевик, Приключения, Фантастика, 1999) HDRip [Расширенная версия / Extended Cut]

Ответить на тему
 
Автор
Сообщение

Omen ®

Стаж: 4 года 7 месяцев

Сообщений: 190649

Торрент-статистика

Пост 27-Июн-2013 20:56

[Цитировать]

Звездные войны: Эпизод 1 – Скрытая угроза (Расширенная версия)
Star Wars: Episode 1 - The Phantom Menace (Extended Cut) (1999) HDRip
- Год выпуска: 1999
Жанр: Боевик, Приключения, Фантастика
Описание фильма:
Мирная и процветающая планета Набу. Торговая федерация, не желая платить налоги, вступает в прямой конфликт с королевой Амидалой, правящей на планете, что приводит к войне. На стороне королевы и республики в ней участвуют два рыцаря-джедая: учитель и ученик, Квай-Гон-Джин и Оби-Ван Кеноби.
Режиссер: Джордж Лукас
Актеры: Лиам Нисон, Юэн МакГрегор, Натали Портман, Джейк Ллойд, Иэн МакДайармид, Пернилла Аугуст, Оливер Форд Дэвис, Хью Куарши, Ахмед Бест, Энтони Дэниел
Продолжительность: 02:19:29
Качество видео: HDRip
Перевод: Дублированный, со вставками двухголосого на расширенные места

Дата мировой премьеры: 19.05.1999
Дата российской премьеры: 29.07.1999
Дата выхода DVD релиза: 09.12.2010
Видеокодек: Xvid
Битрейт видео: ~1591 kbps avg
Размер кадра: 720x304
Аудио #1: 44.100 kHz, MPEG Layer 3, 2 ch, 128.00 kbps avg
Профессиональный (полное дублирование со вставками любительского двухголосого на расширенные места)
Аудио #2: 48 kHz, AC3 Dolby Digital, 2/0 (L,R) ch, 192 kbps
Профессиональный (полное дублирование без перевода на расширенные места)

Extended Cut

Расширенная версия была получена путем врезания удаленных и расширенных сцен на свои места.
Было вставлено 9 удаленных сцен (общей продолжительностью ~8-10 минут).
Добавленные сцены не отличаются по качеству видео от самого фильма.
На двух эпизодах присутствует недорисованная компьютерная графика.

MediaInfo

Общее
Полное имя : E:\торренты на раздаче\Звездные войны. Эпизод I. Скрытая угроза [extended].avi
Формат : AVI
Формат/Информация : Audio Video Interleave
Размер файла : 1,88 Гбайт
Продолжительность : 2 ч. 19 м.
Общий поток : 1929 Кбит/сек
Программа кодирования : VirtualDubMod 1.5.10.2 (build 2540/release)
Библиотека кодирования : VirtualDubMod build 2540/release
Видео
Идентификатор : 0
Формат : MPEG-4 Visual
Профиль формата : Advanced [email protected]
Параметр BVOP формата : 2
Параметр QPel формата : Нет
Параметр GMC формата : Без точки перехода
Параметр матрицы формата : Default (H.263)
Режим смешивания : Сжатый битовый поток
Идентификатор кодека : XVID
Идентификатор кодека/Подсказка : XviD
Продолжительность : 2 ч. 19 м.
Битрейт : 1591 Кбит/сек
Ширина : 720 пикселей
Высота : 304 пикселя
Соотношение сторон : 2,35:1
Частота кадров : 29,970 кадров/сек
Цветовое пространство : YUV
Субдискретизация насыщенности : 4:2:0
Битовая глубина : 8 бит
Тип развёртки : Прогрессивная
Метод сжатия : С потерями
Бит/(Пиксели*Кадры) : 0.243
Размер потока : 1,55 Гбайт (83%)
Библиотека кодирования : XviD 63
Аудио #1
Идентификатор : 1
Формат : MPEG Audio
Версия формата : Version 1
Профиль формата : Layer 3
Режим : Joint stereo
Расширение режима : MS Stereo
Идентификатор кодека : 55
Идентификатор кодека/Подсказка : MP3
Продолжительность : 2 ч. 19 м.
Вид битрейта : Постоянный
Битрейт : 128 Кбит/сек
Каналы : 2 канала
Частота : 44,1 КГц
Метод сжатия : С потерями
Размер потока : 128 Мбайт (7%)
Выравнивание : Разделение по промежуткам
Продолжительность промежутка : 33 мс. (1,00 видеокадр)
Время предзагрузки промежутка : 500 мс.
Аудио #2
Идентификатор : 2
Формат : AC-3
Формат/Информация : Audio Coding 3
Расширение режима : CM (complete main)
Параметр Endianness формата : Big
Идентификатор кодека : 2000
Продолжительность : 2 ч. 19 м.
Вид битрейта : Постоянный
Битрейт : 192 Кбит/сек
Каналы : 2 канала
Расположение каналов : Front: L R
Частота : 48,0 КГц
Битовая глубина : 16 бит
Метод сжатия : С потерями
Размер потока : 192 Мбайт (10%)
Выравнивание : Соединение по промежуткам
Продолжительность промежутка : 33 мс. (1,00 видеокадр)
Время предзагрузки промежутка : 512 мс.
Скриншоты:
       
Вне форума [Профиль] [ЛС]
Похожие темы
Форум Тема Автор Торрент Отв. Посл. сообщение
./templates/default/images/folder_dl.gif Новинки (HD|DVD|BD|WEB|TV|SAT|PDTV|-Rip) Звёздные войны: Пробуждение силы / Star Wars: The Force Awakens (Джей Джей Абрамс) [2015 г., фантастика, фэнтези, боевик, приключения, BDRip 720p] DUB [Line] Theseus
1 | 0

0 | 2597

34

2016-03-25 22:56
Theseus Последнее
Показать сообщения:    
Ответить на тему

Текущее время: Сегодня 08:41

Часовой пояс: GMT + 3



Вы не можете начинать темы
Вы не можете отвечать на сообщения
Вы не можете редактировать свои сообщения
Вы не можете удалять свои сообщения
Вы не можете голосовать в опросах
Вы не можете прикреплять файлы к сообщениям
Вы не можете скачивать файлы