Сегодня идет свободное скачивание без начисления Download

Зелёная миля / The Green Mile (1999) BDRip [H.264]

Ответить на тему
 
Автор
Сообщение

UndegraundMen ®

Стаж: 3 года 9 месяцев

Сообщений: 28329

Торрент-статистика

Пост 28-Июн-2013 06:43

[Цитировать]

Зелёная миля / The Green Mile (1999) BDRip [H.264]
«Пол Эджкомб не верил в чудеса. Пока не столкнулся с одним из них.»
- Год выпуска: 1999
Жанр: Драма, Детектив, Криминал, Фэнтези
Описание фильма:
Обвиненный в страшном преступлении, Джон Коффи оказывается в блоке смертников тюрьмы «Холодная гора». Вновь прибывший обладал поразительным ростом и был пугающе спокоен, что, впрочем, никак не влияло на отношение к нему начальника блока Пола Эджкомба, привыкшего исполнять приговор.
Гигант удивил всех позже, когда выяснилось, что он обладает невероятной магической силой…
Режиссер: Фрэнк Дарабонт
Актеры: Том Хэнкс, Дэвид Морс, Бонни Хант, Майкл Кларк Дункан, Джеймс Кромуэлл, Майкл Джетер, Грэхэм Грин, Даг Хатчинсон, Сэм Роквэлл, Бэрри Пеппер
Продолжительность: 03:08:37
Качество видео: BDRip-AVC
Перевод: Дублированный
Язык субтитров: Отсутствует

Дата мировой премьеры: 6 декабря 1999
Дата российской премьеры: 18 апреля 2000
Дата выхода DVD релиза: 26 ноября 2012, «Новый Диск»
Видеокодек: MPEG-4 AVC/H.264
Битрейт видео: ~909 Кбит/сек
Размер кадра: 768x432
Аудиокодек: AC3 2.0
Битрейт аудио: 192 Кбит/сек

MediaInfo

Код:
General
Unique ID                      : 191577857726140464148818192815562932564 (0x90208DA44221A79D8BDD76E06537C154)
Complete name                  : Green.Mile.1999.BDRip-AVC.NNN-CLUB.RU.mkv
Format                         : Matroska
Format version                 : Version 2
File size                      : 1.45 GiB
Duration                       : 3h 8mn
Overall bit rate               : 1 102 Kbps
Encoded date                   : UTC 2013-06-26 11:52:08
Writing application            : mkvmerge v6.1.0 ('Old Devil') built on Mar  4 2013 09:10:42
Writing library                : libebml v1.3.0 + libmatroska v1.4.0
Video
ID                             : 1
Format                         : AVC
Format/Info                    : Advanced Video Codec
Format profile                 : [url=mailto:[email protected]][email protected][/url]
Format settings, CABAC         : Yes
Format settings, ReFrames      : 10 frames
Codec ID                       : V_MPEG4/ISO/AVC
Duration                       : 3h 8mn
Bit rate                       : 909 Kbps
Width                          : 768 pixels
Height                         : 432 pixels
Display aspect ratio           : 16:9
Frame rate mode                : Constant
Frame rate                     : 23.976 fps
Color space                    : YUV
Chroma subsampling             : 4:2:0
Bit depth                      : 8 bits
Scan type                      : Progressive
Bits/(Pixel*Frame)             : 0.114
Stream size                    : 1.17 GiB (81%)
Writing library                : x264 core 130 r2273 b3065e6
Encoding settings              : cabac=1 / ref=10 / deblock=1:-3:-2 / analyse=0x3:0x113 / me=umh / subme=9 / psy=1 / psy_rd=1.00:0.10 / mixed_ref=1 / me_range=32 / chroma_me=1 / trellis=1 / 8x8dct=1 / cqm=0 / deadzone=21,11 / fast_pskip=1 / chroma_qp_offset=-3 / threads=1 / lookahead_threads=1 / sliced_threads=0 / nr=0 / decimate=1 / interlaced=0 / bluray_compat=0 / constrained_intra=0 / bframes=10 / b_pyramid=2 / b_adapt=1 / b_bias=0 / direct=3 / weightb=1 / open_gop=0 / weightp=2 / keyint=250 / keyint_min=23 / scenecut=40 / intra_refresh=0 / rc_lookahead=60 / rc=2pass / mbtree=1 / bitrate=909 / ratetol=1.0 / qcomp=0.60 / qpmin=0 / qpmax=69 / qpstep=4 / cplxblur=20.0 / qblur=0.5 / ip_ratio=1.40 / aq=1:1.00
Default                        : Yes
Forced                         : No
Audio
ID                             : 2
Format                         : AC-3
Format/Info                    : Audio Coding 3
Mode extension                 : CM (complete main)
Format settings, Endianness    : Big
Codec ID                       : A_AC3
Duration                       : 3h 8mn
Bit rate mode                  : Constant
Bit rate                       : 192 Kbps
Channel(s)                     : 2 channels
Channel positions              : Front: L R
Sampling rate                  : 48.0 KHz
Bit depth                      : 16 bits
Compression mode               : Lossy
Stream size                    : 259 MiB (17%)
Default                        : Yes
Forced                         : No
-Скриншоты:
       
       -
Вне форума [Профиль] [ЛС]
Похожие темы
Форум Тема Автор Торрент Отв. Посл. сообщение
./templates/default/images/folder_dl.gif Фантастика, фэнтези, ужасы, мистика Игорь Марченко - Зелёные береты (Scaners) [2012] [MP3] Omen
2 | 0

0 | 456

3

2012-11-20 21:56
Omen Последнее
./templates/default/images/folder_dl.gif Отечественные мультфильмы Сказочная Русь (Владимир Зеленский) [2012 г., Сатирический мультипликационный проект, SATRip] Ruvest
1 | 0

2 | 1232

15

2013-01-18 23:58
sashaulasik Последнее
./templates/default/images/folder_dl.gif Фильмы в формате 3D (*iso) Зелёный Шершень в 3Д / The Green Hornet 3D (Мишель Гондри / Michel Gondry) [2011, боевик, комедия, криминал, Blu-ray Remux 1080p] BD3D CEE Omen
1 | 0

0 | 661

6

2014-12-21 23:00
Omen Последнее
Показать сообщения:    
Ответить на тему

Текущее время: Сегодня 20:56

Часовой пояс: GMT + 3



Вы не можете начинать темы
Вы не можете отвечать на сообщения
Вы не можете редактировать свои сообщения
Вы не можете удалять свои сообщения
Вы не можете голосовать в опросах
Вы не можете прикреплять файлы к сообщениям
Вы не можете скачивать файлы