Сегодня идет свободное скачивание без начисления Download

Мотылек / Papillon (1973) HDTVRip [720p]

Ответить на тему
 
Автор
Сообщение

UndegraundMen ®

Стаж: 3 года 9 месяцев

Сообщений: 28329

Торрент-статистика

Пост 28-Июн-2013 06:43

[Цитировать]

Мотылек / Papillon (1973) HDTVRip (720p)-«Two men with nothing in common but a will to live and a place to die»
Русское название: Мотылек
Оригинальное название: Papillon
Выпущено: США, Франция, Allied Artists Pictures Corporation, Corona-General, Solar Productions
Год выпуска: 1973
Жанр: Драма, Приключения, Криминал
Описание фильма:
Экранизация одноименного автобиографического произведения бывшего заключенного Анри Шарьера. За убийство, которое он не совершал, взломщик сейфов Анри Шарьер приговорен к пожизненному заключению и отправлен на каторгу. Прозванный «Мотыльком» из-за того, что на его груди вытатуирован этот символ свободы, Анри совершает несколько попыток побега. В наказание власти надолго сажают его в карцер, а затем отправляют во Французскую Гвиану на остров Дьявола, со всех сторон окруженный океаном. Из этой самой страшной каторжной тюрьмы не удавалось бежать ни одному заключенному. Но ничто не может заставить Анри пасть духом и сломить его решимость вырваться на волю.
Режиссер: Франклин Дж. Шаффнер
Актеры: Стив МакКуин, Дастин Хоффман, Виктор Джори, Дон Гордон, Энтони Зербе, Роберт Димен, Вудроу Парфри, Билл Мьюми, Джордж Кулурис, Рэтна Ассан, Уильям Смитерс, Вэл Эйвери, Грегори Сьерра, Вик Тейбэк, Миллс Уотсон, Рон Собл, Барбара Моррисон, Дон Ханмер, Э.Дж. Андре, Ричард Ангарола, Джек Денбо, Лен Лессер, Джон Квэйд, Фред Сэдофф, Аллен Джаффе, Лиам Данн, Питер Брокко, Ричард Фарнсуорт, Билли М. Грин, Энн Бирн Хоффман, Фред Лернер, Гарри Монти, Эллен Мосс, Далтон Трамбо
Продолжительность: 02:30:44
Качество видео: HDTVRip (720p)
Перевод 1: Профессиональный многоголосый (5 канал)
Перевод 2: Двуголосый закадровый (Петр Гланц и Инна Королева)
Язык субтитров: Русские, английские
Вид субтитров: Вшитые

Дата мировой премьеры: 16 декабря 1973
Дата выхода DVD релиза: 25 февраля 2010, «Cinema Prestige»

Видеокодек: MPEG-4 AVC/H.264
Битрейт видео: ~4838 Кбит/сек
Размер кадра: 1280x532
Аудио 1: AC3 Русский 2.0 / 48 kHz / 192 kbps / 16-bit Профессиональный многоголосый (5 канал)
Аудио 2: DTS Русский 6.0 / 48 kHz /755 kbps / 24-bit Двуголосый закадровый (Петр Гланц и Инна Королева)
Аудио 3: AC3 Английский 6.0 / 48 kHz /384 kbps / 16-bit Оригинал
Сэмпл: Ссылка

MediaInfo

Общее
Уникальный идентификатор : 172855267434303839610755078036881426396 (0x820AB6ABD8DCDDD1BDAE74046FAC47DC)
Полное имя : C:\Xvid4PSP\Motylek.1973.x264.HDTVRip.720p.mkv
Формат : Matroska
Версия формата : Version 4 / Version 2
Размер файла : 6,50 Гбайт
Продолжительность : 2 ч. 30 м.
Общий поток : 6170 Кбит/сек
Название фильма : Papillon. 1973 HDTVRip (720p) - Kinozal.TV-HD (YlNiAn)
Дата кодирования : UTC 2013-06-26 20:29:03
Программа кодирования : mkvmerge v6.2.0 ('Promised Land') built on Apr 28 2013 12:22:01
Библиотека кодирования : libebml v1.3.0 + libmatroska v1.4.0
Видео
Идентификатор : 1
Формат : AVC
Формат/Информация : Advanced Video Codec
Профиль формата : [url=mailto:[email protected]][email protected][/url]
Параметр CABAC формата : Да
Параметр ReFrames формата : 10 кадров
Идентификатор кодека : V_MPEG4/ISO/AVC
Продолжительность : 2 ч. 30 м.
Битрейт : 4838 Кбит/сек
Ширина : 1280 пикселей
Высота : 532 пикселя
Соотношение сторон : 2,40:1
Режим частоты кадров : Постоянный
Частота кадров : 23,976 кадра/сек
Цветовое пространство : YUV
Субдискретизация насыщенности : 4:2:0
Битовая глубина : 8 бит
Тип развёртки : Прогрессивная
Бит/(Пиксели*Кадры) : 0.296
Размер потока : 4,97 Гбайт (76%)
Заголовок : Papillon. 1973 HDTVRip (720p)
Библиотека кодирования : x264 core 80 r1373M 4322f63
Настройки программы : cabac=1 / ref=10 / deblock=1:-3:-3 / analyse=0x3:0x133 / me=umh / subme=10 / psy=1 / psy_rd=1.0:0.0 / mixed_ref=1 / me_range=24 / chroma_me=1 / trellis=2 / 8x8dct=1 / cqm=0 / deadzone=21,11 / fast_pskip=0 / chroma_qp_offset=-2 / threads=12 / sliced_threads=0 / nr=0 / decimate=0 / mbaff=0 / constrained_intra=0 / bframes=8 / b_pyramid=2 / b_adapt=2 / b_bias=0 / direct=3 / wpredb=1 / wpredp=2 / keyint=250 / keyint_min=25 / scenecut=40 / rc_lookahead=60 / rc=2pass / mbtree=1 / bitrate=4838 / ratetol=1.0 / qcomp=0.80 / qpmin=10 / qpmax=51 / qpstep=4 / cplxblur=20.0 / qblur=0.5 / ip_ratio=1.30 / aq=1:0.80
Язык : English
Default : Да
Forced : Нет
Аудио #1
Идентификатор : 2
Формат : AC-3
Формат/Информация : Audio Coding 3
Расширение режима : CM (complete main)
Параметр Endianness формата : Big
Идентификатор кодека : A_AC3
Продолжительность : 2 ч. 30 м.
Вид битрейта : Постоянный
Битрейт : 192 Кбит/сек
Каналы : 2 канала
Расположение каналов : Front: L R
Частота : 48,0 КГц
Битовая глубина : 16 бит
Метод сжатия : С потерями
Размер потока : 207 Мбайт (3%)
Заголовок : MVO (5 kanal) (DD 2.0 192 kbps)
Язык : Russian
Default : Да
Forced : Нет
Аудио #2
Идентификатор : 3
Формат : DTS
Формат/Информация : Digital Theater Systems
Режим : 16
Параметр Endianness формата : Big
Идентификатор кодека : A_DTS
Продолжительность : 2 ч. 30 м.
Вид битрейта : Постоянный
Битрейт : 755 Кбит/сек
Каналы : 6 каналов
Расположение каналов : Front: L C R, Side: L R, LFE
Частота : 48,0 КГц
Битовая глубина : 24 бит
Метод сжатия : С потерями
Задержка видео : 9 мс.
Размер потока : 813 Мбайт (12%)
Заголовок : DVO (Glanс & Koroleva) (DTS 5.1 768 kbps)
Язык : Russian
Default : Нет
Forced : Нет
Аудио #3
Идентификатор : 4
Формат : AC-3
Формат/Информация : Audio Coding 3
Расширение режима : CM (complete main)
Параметр Endianness формата : Big
Идентификатор кодека : A_AC3
Продолжительность : 2 ч. 30 м.
Вид битрейта : Постоянный
Битрейт : 384 Кбит/сек
Каналы : 6 каналов
Расположение каналов : Front: L C R, Side: L R, LFE
Частота : 48,0 КГц
Битовая глубина : 16 бит
Метод сжатия : С потерями
Задержка видео : 32 мс.
Размер потока : 414 Мбайт (6%)
Заголовок : DD 5.1 384 kbps
Язык : English
Default : Нет
Forced : Нет
Текст #1
Идентификатор : 5
Формат : UTF-8
Идентификатор кодека : S_TEXT/UTF8
Идентификатор кодека/Информация : UTF-8 Plain Text
Язык : Russian
Default : Да
Forced : Нет
Текст #2
Идентификатор : 6
Формат : UTF-8
Идентификатор кодека : S_TEXT/UTF8
Идентификатор кодека/Информация : UTF-8 Plain Text
Язык : English
Default : Нет
Forced : Нет
Меню
00:00:00.000 : en:1
00:10:00.000 : en:2
00:20:00.000 : en:3
00:30:00.000 : en:4
00:40:00.000 : en:5
00:50:00.000 : en:6
01:00:00.000 : en:7
01:10:00.000 : en:8
01:20:00.000 : en:9
01:30:00.000 : en:10
01:40:00.000 : en:11
01:50:00.000 : en:12
02:00:00.000 : en:13
02:10:00.000 : en:14
02:20:00.000 : en:15
Скриншоты:
         
Время раздачи: 24/7
Вне форума [Профиль] [ЛС]
Похожие темы
Форум Тема Автор Торрент Отв. Посл. сообщение
./templates/default/images/folder_dl.gif Отечественные cериалы Мотыльки (серии 1-4 из 4) (2013) HDTV [1080p] UndegraundMen
1 | 0

0 | 314

3

2013-09-29 05:09
UndegraundMen Последнее
Показать сообщения:    
Ответить на тему

Текущее время: Сегодня 22:47

Часовой пояс: GMT + 3



Вы не можете начинать темы
Вы не можете отвечать на сообщения
Вы не можете редактировать свои сообщения
Вы не можете удалять свои сообщения
Вы не можете голосовать в опросах
Вы не можете прикреплять файлы к сообщениям
Вы не можете скачивать файлы