Today is a free download without charge Download

Девушка с календаря / Calendar Girl (Дерек Линдеман) (Ужасы, Мелодрама, Комедия 2011) WEB-DLRip [VO]

Reply to topic
 
Author
Message

Omen ®

Longevity: 7 years

Posts: 181090

Торрент-статистика

Post 28-Jun-2013 21:35

[Quote]

Девушка с календаря / Calendar Girl - Год выпуска: 2011
Производство: США / Calendar Girl: The Movie, Double Windsor Films
Жанр: Ужасы, Мелодрама, Комедия
Описание фильма:
В Филадельфии декабрь. Пока все готовятся к праздникам, творческий городской маньяк начинает поиски финальной 12-ой девушки, чтобы закончить свой кровавый «календарь». Убийца обещает, что последняя жертва будет особенной и не похожей на остальных. Возможно на эту роль подойдёт некая Ари, официантка местной закусочной.
Режиссер: Дерек Линдеман
Продюсер: Томми Аваллоне, John Guarnere, Дерек Линдеман
Актеры: Корбин Бернсен, Гилберт Готтфрид, Брайан О’Хэллоран, Крис Рааб, Джессика Чоп, Аль Сноу, Мэттью Наду, Брайан Галлахер, Тэмми Жан, Мохаммед Дж. Али
Продолжительность: 01:38:35
Качество видео: WEB-DLRip
Перевод: Любительский (одноголосый)
Язык субтитров: Отсутствуют

Видеокодек: Xvid
Битрейт видео: ~857 Kbit/s
Размер кадра: 672 x 272
Аудиокодек: MP3 2.0
Битрейт аудио: 128 Kbit/s

MediaInfo

Общее
Полное имя : D:\Торренты\РЕЛИЗЫ\Девушка с календаря.2011.WEBDLRip.700Mb.avi
Формат : AVI
Формат/Информация : Audio Video Interleave
Размер файла : 701 Мбайт
Продолжительность : 1 ч. 38 м.
Общий поток : 994 Кбит/сек
Программа кодирования : VirtualDubMod 1.5.10.3 (build 2550/release)
Библиотека кодирования : VirtualDubMod build 2550/release
Видео
Идентификатор : 0
Формат : MPEG-4 Visual
Профиль формата : Advanced [email protected]
Параметр BVOP формата : 2
Параметр QPel формата : Нет
Параметр GMC формата : Без точки перехода
Параметр матрицы формата : Default (MPEG)
Идентификатор кодека : XVID
Идентификатор кодека/Подсказка : XviD
Продолжительность : 1 ч. 38 м.
Битрейт : 857 Кбит/сек
Ширина : 672 пикс.
Высота : 272 пикс.
Соотношение сторон : 2,471
Частота кадров : 23,976 кадр/сек
Цветовое пространство : YUV
Подвыборка цветности : 4:2:0
Битовая глубина : 8 бит
Тип развёртки : Прогрессивная
Метод сжатия : С потерями
Бит/(Пиксели*Кадры) : 0.196
Размер потока : 604 Мбайт (86%)
Библиотека кодирования : XviD 1.2.1 (UTC 2008-12-04)
Аудио
Идентификатор : 1
Формат : MPEG Audio
Версия формата : Version 1
Профиль формата : Layer 3
Идентификатор кодека : 55
Идентификатор кодека/Подсказка : MP3
Продолжительность : 1 ч. 38 м.
Вид битрейта : Постоянный
Битрейт : 128 Кбит/сек
Каналы : 2 канала
Частота : 48,0 КГц
Метод сжатия : С потерями
Размер потока : 90,3 Мбайт (13%)
Выравнивание : Соединение по промежуткам
Продолжительность промежутка : 42 мс. (1,00 видеокадр)
Время предзагрузки промежутка : 504 ms
Библиотека кодирования : LAME3.98r
Настройки программы : -m s -V 4 -q 2 -lowpass 17 -b 128
Скриншоты:
           
Other forum [Profile] [PM]
Display posts from previous:    
Reply to topic

The time now is: Today 07:26

All times are GMT + 3 Hours



You cannot post new topics in this forum
You cannot reply to topics in this forum
You cannot edit your posts in this forum
You cannot delete your posts in this forum
You cannot vote in polls in this forum
You cannot attach files in this forum
You cannot download files in this forum