Сегодня идет свободное скачивание без начисления Download

Пророчество / The Prophecy (Грегори Уайден) (Ужасы, Мистика, Триллер 1995) HDRip

Ответить на тему
 
Автор
Сообщение

Omen ®

Стаж: 4 года 1 месяц

Сообщений: 194359

Торрент-статистика

Пост 28-Июн-2013 21:49

[Цитировать]

Пророчество / The Prophecy -
Год выпуска: 1995
Жанр: Ужасы, Мистика, Триллер
Описание фильма:
Первая война ангелов против Бога, который отдал свою любовь людям, закончилась поражением мятежников. Но никто не знал, что архангел Гавриил развязал и вторую, которая до сих пор не окончена. Своим секретным оружием Гавриил решил избрать самих людей - ну кто кроме них лучше поднаторел в войне, обмане и т.д.? И вот он ищет на Земле самую черную душу... Самая черная душа оказалась у некого полковника, ранее служившего в Корее и прославившегося там своими зверствами. Но и лояльные Богу ангелы не сидят сложа руки. Ангел Симон отправляется на Землю, чтобы спрятать черную душу полковника (он как раз преставился). Гавриил идет по пятам... Начинают погибать "люди", вернее ангелы. Со стороны полиции подключается некий Томас, который ранее хотел стать священником, но прямо на посвящении круто изменил свое решение. Он-то и поставил все кусочки мозаики на место и понял истинные мотивы участников. А тем временем Симон успевает "вселить" душу полковника в девочку и геройски сложить голову под пытками Гавриила, так и не признавшись в местоположении вышеозначенной души. Но Гавриил тоже не лыком шит, не зря архангел. Он докапывается до истины и назревает великая битва, исходом которой станет дальнейшая судьба человечества. Как ни странно, в ней живейшее участие принял и сам Люцифер, причем не на стороне архангела...
Режиссер: Грегори Уайден
Актеры: Кристофер Уокен, Элиас Котеас, Вирджиния Мэдсен, Эрик Штолц, Эдам Голдберг, Стив Хитнер, Дж. С. Куинн, Морайа Шайнинг-Дав Снайдер, Аманда Пламмер, Вигго Мортенсен
Продолжительность: 01:37:45
Качество видео: HDRip c |BDRip 1080p|
Перевод: Профессиональный (многоголосый закадровый) МиксМедиа

___________________________
Видеокодек: Xvid
Битрейт видео: ~1932 kbps
Размер кадра: 720x304
Аудио: AC3, 2 ch, 192.00 kbps

MI

Общее
Полное имя : prorochstvo.1995.HDRip.avi
Формат : AVI
Формат/Информация : Audio Video Interleave
Размер файла : 1,46 Гбайт
Продолжительность : 1 ч. 37 м.
Общий поток : 2132 Кбит/сек
Программа кодирования : VirtualDubMod 1.5.10.2 (build 2542/release)
Библиотека кодирования : VirtualDubMod build 2542/release
Видео
Идентификатор : 0
Формат : MPEG-4 Visual
Профиль формата : Advanced [email protected]
Параметр BVOP формата : 1
Параметр QPel формата : Нет
Параметр GMC формата : Без точки перехода
Параметр матрицы формата : Выборочная
Идентификатор кодека : XVID
Идентификатор кодека/Подсказка : XviD
Продолжительность : 1 ч. 37 м.
Битрейт : 1932 Кбит/сек
Ширина : 720 пикс.
Высота : 304 пикс.
Соотношение сторон : 2,35:1
Частота кадров : 23,976 кадр/сек
Цветовое пространство : YUV
Подвыборка цветности : 4:2:0
Битовая глубина : 8 бит
Тип развёртки : Прогрессивная
Метод сжатия : С потерями
Бит/(Пиксели*Кадры) : 0.368
Размер потока : 1,32 Гбайт (91%)
Библиотека кодирования : XviD 73
Аудио
Идентификатор : 1
Формат : AC-3
Формат/Информация : Audio Coding 3
Расширение режима : CM (complete main)
Идентификатор кодека : 2000
Продолжительность : 1 ч. 37 м.
Вид битрейта : Постоянный
Битрейт : 192 Кбит/сек
Канал(ы) : 2 канала(ов)
Расположение каналов : Front: L R
Частота : 48,0 КГц
Битовая глубина : 16 бит
Метод сжатия : С потерями
Размер потока : 133 Мбайт (9%)
Выравнивание : Разделение по промежуткам
Продолжительность промежутка : 42 мс. (1,01 видеокадр)
Время предзагрузки промежутка : 500 ms
Скриншоты:
       
       
Вне форума [Профиль] [ЛС]
Показать сообщения:    
Ответить на тему

Текущее время: Сегодня 01:18

Часовой пояс: GMT + 3



Вы не можете начинать темы
Вы не можете отвечать на сообщения
Вы не можете редактировать свои сообщения
Вы не можете удалять свои сообщения
Вы не можете голосовать в опросах
Вы не можете прикреплять файлы к сообщениям
Вы не можете скачивать файлы