Сегодня идет свободное скачивание без начисления Download

Легкие деньги / Free money (1998) WEB-DLRip

Ответить на тему
 
Автор
Сообщение

Omen ®

Стаж: 4 года 1 месяц

Сообщений: 194382

Торрент-статистика

Пост 28-Июн-2013 21:59

[Цитировать]

Легкие деньги / Free money - Год выпуска: 1998
Жанр: Комедия, Криминал
Описание фильма:
Простых парней Бада (Чарли Шин) и Ларри (Томас Хейден Черч),угораздило жениться на дочерях грозного начальника тюрьмы по кличке Швед (Марлон Брандо). Очень быстро Ларри и Баду просто осточертело жить рядом с тестем , под его полным контролем. На пути к свободе они решили ограбить поезд,перевозящий огромную сумму денег.
Режиссер: Ив Симоне
Актеры: Марлон Брандо , Дональд Сазерленд , Чарли Шин , Томас Хейден Черч , Мира Сорвино , Мартин Шин , Дэвид Аркетт , Жан Пьерр Бержерон , Реми Жирар.
Продолжительность: 01:34:08
Качество видео: WEB-DLRip
Перевод: Профессиональный (многоголосый закадровый)

___________________________
Видеокодек: Xvid
Битрейт видео: ~2017 kbps
Размер кадра: 720x400
Аудио: AC3, 2 ch, 192.00 kbps

MI

Общее
Полное имя : Free.Money.1998.WEB-DLRip.avi
Формат : AVI
Формат/Информация : Audio Video Interleave
Размер файла : 1,46 Гбайт
Продолжительность : 1 ч. 34 м.
Общий поток : 2219 Кбит/сек
Программа кодирования : VirtualDubMod 1.5.10.2 (build 2542/release)
Библиотека кодирования : VirtualDubMod build 2542/release
Видео
Идентификатор : 0
Формат : MPEG-4 Visual
Профиль формата : Advanced [email protected]
Параметр BVOP формата : 1
Параметр QPel формата : Нет
Параметр GMC формата : Без точки перехода
Параметр матрицы формата : Выборочная
Идентификатор кодека : XVID
Идентификатор кодека/Подсказка : XviD
Продолжительность : 1 ч. 34 м.
Битрейт : 2017 Кбит/сек
Ширина : 720 пикс.
Высота : 400 пикс.
Соотношение сторон : 16:9
Частота кадров : 23,976 кадр/сек
Цветовое пространство : YUV
Подвыборка цветности : 4:2:0
Битовая глубина : 8 бит
Тип развёртки : Прогрессивная
Метод сжатия : С потерями
Бит/(Пиксели*Кадры) : 0.292
Размер потока : 1,33 Гбайт (91%)
Библиотека кодирования : XviD 73
Аудио
Идентификатор : 1
Формат : AC-3
Формат/Информация : Audio Coding 3
Расширение режима : CM (complete main)
Идентификатор кодека : 2000
Продолжительность : 1 ч. 34 м.
Вид битрейта : Постоянный
Битрейт : 192 Кбит/сек
Канал(ы) : 2 канала(ов)
Расположение каналов : Front: L R
Частота : 48,0 КГц
Битовая глубина : 16 бит
Метод сжатия : С потерями
Размер потока : 129 Мбайт (9%)
Выравнивание : Разделение по промежуткам
Продолжительность промежутка : 42 мс. (1,00 видеокадр)
Время предзагрузки промежутка : 500 ms
Скриншоты:
           
Вне форума [Профиль] [ЛС]
Показать сообщения:    
Ответить на тему

Текущее время: Сегодня 22:19

Часовой пояс: GMT + 3



Вы не можете начинать темы
Вы не можете отвечать на сообщения
Вы не можете редактировать свои сообщения
Вы не можете удалять свои сообщения
Вы не можете голосовать в опросах
Вы не можете прикреплять файлы к сообщениям
Вы не можете скачивать файлы