Сегодня идет свободное скачивание без начисления Download

По кусочкам / Picking Up the Pieces (Альфонсо Арау) (Комедия, Фэнтези 2000) DVDRip [H.264]

Ответить на тему
 
Автор
Сообщение

Omen ®

Стаж: 4 года 1 месяц

Сообщений: 194394

Торрент-статистика

Пост 29-Июн-2013 21:16

[Цитировать]

По кусочкам / Picking Up the Pieces (2000) DVDRip [H.264] - Год выпуска: 2000
Жанр: Комедия, Фэнтези
Производство: США/Comala Films Productions, Kushner-Locke Company, Ostensible Productions
Описание фильма:
Застав свою жену в постели с другим мужчиной, мясник Тэкс в ярости убивает ее и разрубает тело на кусочки, закапывая их в пустыне. Но когда рука убитой Кенди случайно оказывается на поверхности, слепая старуха, споткнувшись о нее, внезапно обретает зрение!
Предприимчивый мэр тут же решает заработать на «целительной» руке, которую народ уже нарек Дланью Богородицы. Вскоре его городок становится знаменитым местом паломничества жаждущих чуда! Народ в экстазе, а несчастному Тэксу теперь нужно срочно выкрасть руку, пока местный шериф не догадался, кому она принадлежала.
Режиссер: Альфонсо Арау
Сценарий: Билл Уилсон
Продюсер: Альфонсо Арау, Мими Полк, Дональд Кушнер
Актеры: Вуди Аллен, Мария Грация Кучинотта, Чич Марин, Дэвид Швиммер, Кифер Сазерленд, Шэрон Стоун, Альфонсо Арау, Маркус Дэмиен, Брайан Брофи, Бетти Карвальо, Энрике Кастилло, Дэнни Де Ла Пас, Энди Дик, Фрэн Дрешер, Джозеф Гордон-Левитт, Гектор Элизондо
Продолжительность: 01:35:21
Качество видео: DVDRip
Перевод: Двуголосый закадровый

Дата мировой премьеры: 26 мая 2000
Видеокодек: MPEG-4 AVC/H.264
Битрейт видео: ~2235 Кбит/сек
Размер кадра: 720x368
Аудиокодек: AC3 5.1
Битрейт аудио: 384 kbps

MediaInfo:

Общее
Уникальный идентификатор : 189370864420300843617241588995625614871 (0x8E7780787720CE4E8E6961BD2ECC7E17)
Полное имя : H:\Downloads\По кусочкам.mkv
Формат : Matroska
Размер файла : 1,75 Гбайт
Продолжительность : 1 ч. 35 м.
Общий поток : 2620 Кбит/сек
Дата кодирования : UTC 2013-06-29 04:47:04
Программа кодирования : mkvmerge v6.0.0 ('Coming Up For Air') built on Jan 20 2013 09:52:00
Библиотека кодирования : libebml v1.3.0 + libmatroska v1.4.0
Видео
Идентификатор : 1
Формат : AVC
Формат/Информация : Advanced Video Codec
Профиль формата : [url=mailto:[email protected]][email protected][/url]
Параметр CABAC формата : Да
Параметр ReFrames формата : 8 кадров
Идентификатор кодека : V_MPEG4/ISO/AVC
Продолжительность : 1 ч. 35 м.
Битрейт : 2235 Кбит/сек
Ширина : 720 пикс.
Высота : 368 пикс.
Соотношение сторон : 1,957
Частота кадров : 23,976 кадр/сек
Цветовое пространство : YUV
Подвыборка цветности : 4:2:0
Битовая глубина : 8 бит
Тип развёртки : Прогрессивная
Бит/(Пиксели*Кадры) : 0.352
Размер потока : 1,45 Гбайт (83%)
Заголовок : Picking Up the Pieces
Библиотека кодирования : x264 core 125 r2208 d9d2288
Настройки программы : cabac=1 / ref=8 / deblock=1:-1:-1 / analyse=0x3:0x133 / me=umh / subme=9 / psy=1 / psy_rd=1.00:0.10 / mixed_ref=1 / me_range=32 / chroma_me=1 / trellis=2 / 8x8dct=1 / cqm=0 / deadzone=21,11 / fast_pskip=0 / chroma_qp_offset=-3 / threads=6 / lookahead_threads=1 / sliced_threads=0 / nr=0 / decimate=1 / interlaced=0 / bluray_compat=0 / constrained_intra=0 / bframes=3 / b_pyramid=2 / b_adapt=2 / b_bias=0 / direct=3 / weightb=1 / open_gop=0 / weightp=2 / keyint=250 / keyint_min=25 / scenecut=40 / intra_refresh=0 / rc_lookahead=60 / rc=2pass / mbtree=1 / bitrate=2235 / ratetol=1.0 / qcomp=0.60 / qpmin=10 / qpmax=51 / qpstep=4 / cplxblur=20.0 / qblur=0.5 / ip_ratio=1.40 / aq=1:1.00
Язык : English
Аудио
Идентификатор : 2
Формат : AC-3
Формат/Информация : Audio Coding 3
Расширение режима : CM (complete main)
Идентификатор кодека : A_AC3
Продолжительность : 1 ч. 35 м.
Вид битрейта : Постоянный
Битрейт : 384 Кбит/сек
Каналы : 6 каналов
Расположение каналов : Front: L C R, Side: L R, LFE
Частота : 48,0 КГц
Битовая глубина : 16 бит
Метод сжатия : С потерями
Размер потока : 262 Мбайт (15%)
Заголовок : Профессиональный (двухголосый)
Язык : Russian
Скриншоты:                    
Вне форума [Профиль] [ЛС]
Показать сообщения:    
Ответить на тему

Текущее время: Сегодня 02:55

Часовой пояс: GMT + 3



Вы не можете начинать темы
Вы не можете отвечать на сообщения
Вы не можете редактировать свои сообщения
Вы не можете удалять свои сообщения
Вы не можете голосовать в опросах
Вы не можете прикреплять файлы к сообщениям
Вы не можете скачивать файлы