Сегодня идет свободное скачивание без начисления Download

Что за путь! / What a Way to Go! (Дж. Ли Томпсон) (Мелодрама, Комедия, Музыка 1964) DVDRip [H.264]

Ответить на тему
 
Автор
Сообщение

Omen ®

Стаж: 4 года 1 месяц

Сообщений: 194394

Торрент-статистика

Пост 29-Июн-2013 21:48

[Цитировать]

Что за путь! / What a Way to Go! -«What A Cast!... What A Past!... What A Show!...»- Русское название: Что за путь!
Оригинальное название: What a Way to Go!
Год выпуска: 1964
Жанр: Мелодрама, Комедия, Музыка
Производство: США/Apjac-Orchard Productions
Описание фильма:
Луиза Мей Фостер романтичная молодая женщина, которая мечтает выйти замуж по любви, а не за деньги. Однако на ней словно лежит проклятье, потому что все ее мужья — так или иначе — не могут устоять перед соблазном богатства, известности или власти, тратят все свои силы на это и в результате умирают, оставляя Луизу богатой и несчатной вдовой. Луиза выходит замуж четыре раза, и каждый очередной муж оставляет ее всё более богатой. Луизе же эти деньги совсем не нужны, ей хочется простого женского семейного счастья…
Режиссер: Дж. Ли Томпсон
Сценарий: Бетти Комден, Адольф Грин, Гвен Дэвис
Продюсер: Артур П. Джейкобс
Актеры: Ширли МакЛейн, Пол Ньюман, Роберт Митчум, Дин Мартин, Джин Келли, Роберт Каммингс, Дик Ван Дайк, Реджинальд Гардинер, Маргарет Дюмон, Лу Нова
Продолжительность: 01:50:55
Качество видео: DVDRip
Перевод: Многоголосый закадровый

Дата мировой премьеры: 12 мая 1964
Видеокодек: MPEG-4 AVC/H.264
Битрейт видео: ~1850 Кбит/сек
Размер кадра: 720x304
Аудиокодек: AC3 2.0
Битрейт аудио: 192 kbps

Знаете ли вы, что...

Костюмер Эдит Хед истратила полмиллиона долларов, чтобы МакЛэйн могла примерить 70 костюмов, а Рэрри Уинстон использовал ювелирную коллекцию в 4 миллиона.

Реценция с кинопоиска от mel-nwsc:

Начал я смотреть этот «шедевр» совершенно не зная о нём ничего, даже названия — шёл по телеку глубокой ночью.
Сначала мне показалось, что это пародия на старые голливудские фильмы — стиль был уж больно странным, со своеобразным юмором и игрой актёров… но оказалось, что это просто старая-престарая (но при этом уже цветная) комедия.
Несмотря на необычность для современного восприятия, фильм смотрится легко и весело. Интересно и разнообразно обыграны все ситуации с замужеством и смерть мужей главной героини.
Хорошая интерпретация старой как мир темы жажды денег и накопления капитала.
Рекомендую любителям старого кино… и просто всем киноманам для общего развития.
Классика. Оценки тут неуместны.

Награды:

Оскар, 1965 год
Номинации (2):
Лучшая работа художника (цветные фильмы)
Лучшая работа художника по костюмам (цветные фильмы)
Британская академия, 1965 год
Номинации (1):
Лучшая иностранная актриса (Ширли МакЛейн)

MediaInfo:

Общее
Уникальный идентификатор : 208121973446971208070612701326118503201 (0x9C92D585EA8A9AC0B9B421FDE30C4321)
Полное имя : H:\Downloads\Что за путь!.mkv
Формат : Matroska
Размер файла : 1,58 Гбайт
Продолжительность : 1 ч. 50 м.
Общий поток : 2044 Кбит/сек
Дата кодирования : UTC 2013-06-28 10:02:07
Программа кодирования : mkvmerge v6.0.0 ('Coming Up For Air') built on Jan 20 2013 09:52:00
Библиотека кодирования : libebml v1.3.0 + libmatroska v1.4.0
Видео
Идентификатор : 1
Формат : AVC
Формат/Информация : Advanced Video Codec
Профиль формата : [url=mailto:[email protected]][email protected][/url]
Параметр CABAC формата : Да
Параметр ReFrames формата : 8 кадров
Идентификатор кодека : V_MPEG4/ISO/AVC
Продолжительность : 1 ч. 50 м.
Битрейт : 1850 Кбит/сек
Ширина : 720 пикс.
Высота : 304 пикс.
Соотношение сторон : 2,35:1
Частота кадров : 23,976 кадр/сек
Цветовое пространство : YUV
Подвыборка цветности : 4:2:0
Битовая глубина : 8 бит
Тип развёртки : Прогрессивная
Бит/(Пиксели*Кадры) : 0.353
Размер потока : 1,40 Гбайт (89%)
Заголовок : What a Way to Go!
Библиотека кодирования : x264 core 125 r2208 d9d2288
Настройки программы : cabac=1 / ref=8 / deblock=1:-1:-1 / analyse=0x3:0x133 / me=umh / subme=9 / psy=1 / psy_rd=1.00:0.10 / mixed_ref=1 / me_range=32 / chroma_me=1 / trellis=2 / 8x8dct=1 / cqm=0 / deadzone=21,11 / fast_pskip=0 / chroma_qp_offset=-3 / threads=6 / lookahead_threads=1 / sliced_threads=0 / nr=0 / decimate=1 / interlaced=0 / bluray_compat=0 / constrained_intra=0 / bframes=3 / b_pyramid=2 / b_adapt=2 / b_bias=0 / direct=3 / weightb=1 / open_gop=0 / weightp=2 / keyint=250 / keyint_min=25 / scenecut=40 / intra_refresh=0 / rc_lookahead=60 / rc=2pass / mbtree=1 / bitrate=1850 / ratetol=1.0 / qcomp=0.60 / qpmin=10 / qpmax=51 / qpstep=4 / cplxblur=20.0 / qblur=0.5 / ip_ratio=1.40 / aq=1:1.00
Язык : English
Аудио
Идентификатор : 2
Формат : AC-3
Формат/Информация : Audio Coding 3
Расширение режима : CM (complete main)
Идентификатор кодека : A_AC3
Продолжительность : 1 ч. 50 м.
Вид битрейта : Постоянный
Битрейт : 192 Кбит/сек
Каналы : 2 канала
Расположение каналов : Front: L R
Частота : 48,0 КГц
Битовая глубина : 16 бит
Метод сжатия : С потерями
Размер потока : 152 Мбайт (9%)
Заголовок : Многоголосый закадровый
Язык : Russian
Скриншоты:                    
Вне форума [Профиль] [ЛС]
Показать сообщения:    
Ответить на тему

Текущее время: Сегодня 13:13

Часовой пояс: GMT + 3



Вы не можете начинать темы
Вы не можете отвечать на сообщения
Вы не можете редактировать свои сообщения
Вы не можете удалять свои сообщения
Вы не можете голосовать в опросах
Вы не можете прикреплять файлы к сообщениям
Вы не можете скачивать файлы