Сегодня идет свободное скачивание без начисления Download

Капитан / Le capitan (1960) BDRip [1080p]

Ответить на тему
 
Автор
Сообщение

UndegraundMen ®

Стаж: 3 года 9 месяцев

Сообщений: 28329

Торрент-статистика

Пост 30-Июн-2013 11:11

[Цитировать]

Капитан / Le capitan (1960) BDRip-- Русское название: Капитан
Оригинальное название: Le Capitan
Год выпуска: 1960
Страна: Франция, Италия
Жанр: боевик, приключения-Описание фильма:
1616 год. Сыну убитого Генриха IV Людовику XIII пятнадцать лет. Он еще мал, чтобы управлять страной. И королева-мать Мария Медичи назначает на пост регента Кончини, который жаждет сам получить трон и титул короля Франции. Молодой дворянин Франсуа, втянутый в эту интригу, искренне предан законному наследнику престола Людовику. Он прилагает все усилия, чтобы встретиться с ним и предупредить его об опасности. В этом ему помогают уличный фокусник и весельчак Коголин…-Режиссер: Андре Юнебель
Актеры: Жан Маре, Бурвиль, Эльза Мартинелли, Пьеретт Бруно, Лизе Деламар, Анни Андерсон, Ги Делорм, Жаклин Порель, Жан-Поль Коклен, Рафаэль Паторни ...
Продолжительность: 01:44:48
Качество видео: BDRip 1080p
Перевод: Дублированный
Релиз группа: Blue Bird &
Язык субтитров: русский
Вид субтитров: вшитые отключаемые

Дата мировой премьеры: 5 октября 1960
Видеокодек: MPEG-4 AVC/H.264
Битрейт видео: ~10.5 Mbps
Размер кадра: 1920*816
Аудио #1: AC3 5.1, ~384 Kbps (дублированный + вставки на непереведенные фрагменты)
Аудио #2: AC3 5.1, ~384 Kbps (MVO CP Digital)
Аудио #3: AC3 2.0, ~192 Kbps (MVO REN-TV)
Аудио #4: AC3 2.0, ~192 Kbps (VO Всеволод Абдулов)
Аудио #5: DTS 5.1, ~1509 kbps (французкий)

MediaInfo:

Код:
General
Unique ID                                : 250687446359629683175377561987895812912 (0xBC98A55DCE08BFBE99E15F3078746330)
Complete name                            : :\\Le.Capitan.(1960).BDRip.1080p.CMEGRoup.mkv
Format                                   : Matroska
Format version                           : Version 4 / Version 2
File size                                : 9.64 GiB
Duration                                 : 1h 44mn
Overall bit rate                         : 13.2 Mbps
Movie name                               : CMEGRoup
Encoded date                             : UTC 2013-06-26 10:13:12
Writing application                      : mkvmerge v6.1.0 ('Old Devil') built on Mar  2 2013 14:32:37
Writing library                          : libebml v1.3.0 + libmatroska v1.4.0
Video
ID                                       : 1
Format                                   : AVC
Format/Info                              : Advanced Video Codec
Format profile                           : [url=mailto:[email protected]][email protected][/url]
Format settings, CABAC                   : Yes
Format settings, ReFrames                : 4 frames
Codec ID                                 : V_MPEG4/ISO/AVC
Duration                                 : 1h 44mn
Bit rate                                 : 10.5 Mbps
Width                                    : 1 920 pixels
Height                                   : 816 pixels
Display aspect ratio                     : 2.35:1
Frame rate mode                          : Constant
Frame rate                               : 24.000 fps
Color space                              : YUV
Chroma subsampling                       : 4:2:0
Bit depth                                : 8 bits
Scan type                                : Progressive
Bits/(Pixel*Frame)                       : 0.279
Stream size                              : 7.50 GiB (78%)
Writing library                          : x264 core 133 r2334 a3ac64b
Encoding settings                        : cabac=1 / ref=4 / deblock=1:-3:-3 / analyse=0x3:0x113 / me=umh / subme=11 / psy=1 / psy_rd=1.00:0.00 / mixed_ref=1 / me_range=32 / chroma_me=1 / trellis=2 / 8x8dct=1 / cqm=0 / deadzone=21,11 / fast_pskip=1 / chroma_qp_offset=-2 / threads=6 / lookahead_threads=1 / sliced_threads=0 / nr=0 / decimate=1 / interlaced=0 / bluray_compat=0 / constrained_intra=0 / bframes=5 / b_pyramid=2 / b_adapt=2 / b_bias=0 / direct=2 / weightb=0 / open_gop=0 / weightp=2 / keyint=240 / keyint_min=24 / scenecut=40 / intra_refresh=0 / rc_lookahead=40 / rc=2pass / mbtree=1 / bitrate=10500 / ratetol=1.0 / qcomp=0.60 / qpmin=0 / qpmax=69 / qpstep=4 / cplxblur=20.0 / qblur=0.5 / vbv_maxrate=62500 / vbv_bufsize=78125 / nal_hrd=none / ip_ratio=1.40 / aq=1:1.00
Language                                 : English
Default                                  : Yes
Forced                                   : No
Audio #1
ID                                       : 2
Format                                   : AC-3
Format/Info                              : Audio Coding 3
Mode extension                           : CM (complete main)
Format settings, Endianness              : Big
Codec ID                                 : A_AC3
Duration                                 : 1h 44mn
Bit rate mode                            : Constant
Bit rate                                 : 384 Kbps
Channel(s)                               : 6 channels
Channel positions                        : Front: L C R, Side: L R, LFE
Sampling rate                            : 48.0 KHz
Bit depth                                : 16 bits
Compression mode                         : Lossy
Stream size                              : 288 MiB (3%)
Title                                    : DUB
Language                                 : Russian
Default                                  : Yes
Forced                                   : No
Audio #2
ID                                       : 3
Format                                   : AC-3
Format/Info                              : Audio Coding 3
Mode extension                           : CM (complete main)
Format settings, Endianness              : Big
Codec ID                                 : A_AC3
Duration                                 : 1h 44mn
Bit rate mode                            : Constant
Bit rate                                 : 384 Kbps
Channel(s)                               : 6 channels
Channel positions                        : Front: L C R, Side: L R, LFE
Sampling rate                            : 48.0 KHz
Bit depth                                : 16 bits
Compression mode                         : Lossy
Stream size                              : 288 MiB (3%)
Title                                    : MVO CP Digital
Language                                 : Russian
Default                                  : No
Forced                                   : No
Audio #3
ID                                       : 4
Format                                   : AC-3
Format/Info                              : Audio Coding 3
Format profile                           : Dolby Digital
Mode extension                           : CM (complete main)
Format settings, Endianness              : Big
Codec ID                                 : A_AC3
Duration                                 : 1h 44mn
Bit rate mode                            : Constant
Bit rate                                 : 192 Kbps
Channel(s)                               : 2 channels
Channel positions                        : Front: L R
Sampling rate                            : 48.0 KHz
Bit depth                                : 16 bits
Compression mode                         : Lossy
Stream size                              : 144 MiB (1%)
Title                                    : MVO REN-TV
Language                                 : Russian
Default                                  : No
Forced                                   : No
Audio #4
ID                                       : 5
Format                                   : AC-3
Format/Info                              : Audio Coding 3
Format profile                           : Dolby Digital
Mode extension                           : CM (complete main)
Format settings, Endianness              : Big
Codec ID                                 : A_AC3
Duration                                 : 1h 44mn
Bit rate mode                            : Constant
Bit rate                                 : 192 Kbps
Channel(s)                               : 2 channels
Channel positions                        : Front: L R
Sampling rate                            : 48.0 KHz
Bit depth                                : 16 bits
Compression mode                         : Lossy
Stream size                              : 144 MiB (1%)
Title                                    : OVO Abdulov
Language                                 : Russian
Default                                  : No
Forced                                   : No
Audio #5
ID                                       : 6
Format                                   : DTS
Format/Info                              : Digital Theater Systems
Mode                                     : 16
Format settings, Endianness              : Big
Codec ID                                 : A_DTS
Duration                                 : 1h 44mn
Bit rate mode                            : Constant
Bit rate                                 : 1 509 Kbps
Channel(s)                               : 6 channels
Channel positions                        : Front: L C R, Side: L R, LFE
Sampling rate                            : 48.0 KHz
Bit depth                                : 24 bits
Compression mode                         : Lossy
Stream size                              : 1.10 GiB (11%)
Language                                 : French
Default                                  : No
Forced                                   : No
Text
ID                                       : 7
Format                                   : UTF-8
Codec ID                                 : S_TEXT/UTF8
Codec ID/Info                            : UTF-8 Plain Text
Language                                 : Russian
Default                                  : Yes
Forced                                   : No
Menu
00:00:00.000                             : :Chapter 01
00:01:36.000                             : :Chapter 02
00:02:29.000                             : :Chapter 03
00:11:54.916                             : :Chapter 04
00:24:52.041                             : :Chapter 05
00:36:02.000                             : :Chapter 06
00:51:31.500                             : :Chapter 07
01:08:20.416                             : :Chapter 08
01:15:38.708                             : :Chapter 09
01:27:48.791                             : :Chapter 10
01:30:23.333                             : :Chapter 11
01:44:43.708                             : :Chapter 12
Скриншоты:        Время раздачи: 24/7 до 3-х скачавших
Вне форума [Профиль] [ЛС]
Показать сообщения:    
Ответить на тему

Текущее время: Сегодня 17:20

Часовой пояс: GMT + 3



Вы не можете начинать темы
Вы не можете отвечать на сообщения
Вы не можете редактировать свои сообщения
Вы не можете удалять свои сообщения
Вы не можете голосовать в опросах
Вы не можете прикреплять файлы к сообщениям
Вы не можете скачивать файлы