Сегодня идет свободное скачивание без начисления Download

Ванда Невада / Wanda Nevada (1979) [720p] BDRip

Ответить на тему
 
Автор
Сообщение

UndegraundMen ®

Стаж: 3 года 9 месяцев

Сообщений: 28329

Торрент-статистика

Пост 30-Июн-2013 11:11

[Цитировать]

Ванда Невада / Wanda Nevada (1979) BDRip [720p] - Русское название: Ванда Невада
Оригинальное название: Wanda Nevada
Выпущено: США, Hayward-Fonda Productions
Год выпуска: 1979
Жанр: Вестерн, Мелодрама, Комедия
Описание фильма:
Рассказ о бродяге по имени Бодрей Демерилл, который выигрывает в покер молодую сиротку по имени Ванда и берет ее с собой в путешествие к Большому Каньону.
Режиссер: Питер Фонда
Актеры: Питер Фонда, Брук Шилдс, Фиона Льюис, Люк Аскью, Тед Маркленд, Северн Дарден, Пол Фикс, Генри Фонда, Ларри Голден, Джон Денос, Берт Уильямс, Фред Эшли, Джейсон Кларк, Роберт В. Уолкер мл., Тери Шилдс, Бенни Доброфски, Крэйг Пинкард, Тайни Уэллс, Берт Маршалл, Дж.Д. Кларк, Дэнни Запьен, Джино Сильва, Кэрол Нортон, Рамона Ричардс, Мелвин Тодд, Тим Джейнс, Райли Хилл, Лон Карли
Продолжительность: 01:47:23
Качество видео: BDRip
Перевод: Двуголосый закадровый

Дата мировой премьеры: 22 января 1994
Видеокодек: MPEG-4 AVC/H.264
Битрейт видео: ~9050 Кбит/с
Размер кадра: 1280x694
Аудио 1: AC3 Русский 2.0 / 48 kHz / 192 kbps / 16-bit Профессиональный двухголосый
Аудио 2: AC3 Английский 2.0 / 48 kHz / 640 kbps / 16-bit Оригинал
Сэмпл: Ссылка

MediaInfo

Общее
Уникальный идентификатор : 241108008148166892993147667990450009941 (0xB563B6990551140F9D786677C9DBF755)
Полное имя : C:\Xvid4PSP\Wanda.Nevada.1979.x264.720p.mkv
Формат : Matroska
Версия формата : Version 4 / Version 2
Размер файла : 7,41 Гбайт
Продолжительность : 1 ч. 47 м.
Общий поток : 9883 Кбит/сек
Дата кодирования : UTC 2013-06-27 21:26:02
Программа кодирования : mkvmerge v6.2.0 ('Promised Land') built on Apr 28 2013 12:22:01
Библиотека кодирования : libebml v1.3.0 + libmatroska v1.4.0
Видео
Идентификатор : 1
Формат : AVC
Формат/Информация : Advanced Video Codec
Профиль формата : [url=mailto:[email protected]][email protected][/url]
Параметр CABAC формата : Да
Параметр ReFrames формата : 5 кадров
Идентификатор кодека : V_MPEG4/ISO/AVC
Продолжительность : 1 ч. 47 м.
Битрейт : 9050 Кбит/сек
Ширина : 1280 пикселей
Высота : 694 пикселя
Соотношение сторон : 1,85:1
Режим частоты кадров : Постоянный
Частота кадров : 23,976 кадра/сек
Цветовое пространство : YUV
Субдискретизация насыщенности : 4:2:0
Битовая глубина : 8 бит
Тип развёртки : Прогрессивная
Бит/(Пиксели*Кадры) : 0.425
Размер потока : 6,64 Гбайт (90%)
Библиотека кодирования : x264 core 130 r2273kMod b3065e6
Настройки программы : cabac=1 / ref=5 / deblock=1:-3:-3 / analyse=0x3:0x113 / me=umh / subme=10 / psy=1 / fade_compensate=0.00 / psy_rd=1.00:0.05 / mixed_ref=1 / me_range=42 / chroma_me=1 / trellis=2 / 8x8dct=1 / cqm=0 / deadzone=21,11 / fast_pskip=0 / chroma_qp_offset=-3 / threads=6 / lookahead_threads=1 / sliced_threads=0 / nr=0 / decimate=1 / interlaced=0 / bluray_compat=0 / constrained_intra=0 / bframes=9 / b_pyramid=2 / b_adapt=2 / b_bias=0 / direct=3 / weightb=1 / open_gop=0 / weightp=2 / keyint=250 / keyint_min=23 / scenecut=40 / intra_refresh=0 / rc=2pass / mbtree=0 / bitrate=9050 / ratetol=1.0 / qcomp=0.70 / qpmin=10 / qpmax=51 / qpstep=4 / cplxblur=20.0 / qblur=0.5 / ip_ratio=1.40 / pb_ratio=1.30 / aq=1:0.90
Язык : English
Default : Да
Forced : Нет
Коэффициенты матрицы : BT.709
Аудио #1
Идентификатор : 2
Формат : AC-3
Формат/Информация : Audio Coding 3
Расширение режима : CM (complete main)
Параметр Endianness формата : Big
Идентификатор кодека : A_AC3
Продолжительность : 1 ч. 47 м.
Вид битрейта : Постоянный
Битрейт : 192 Кбит/сек
Каналы : 2 канала
Расположение каналов : Front: L R
Частота : 48,0 КГц
Битовая глубина : 16 бит
Метод сжатия : С потерями
Размер потока : 147 Мбайт (2%)
Заголовок : Двухголосый закадровый, НТВ+
Язык : Russian
Default : Да
Forced : Нет
Аудио #2
Идентификатор : 3
Формат : AC-3
Формат/Информация : Audio Coding 3
Расширение режима : CM (complete main)
Параметр Endianness формата : Big
Идентификатор кодека : A_AC3
Продолжительность : 1 ч. 47 м.
Вид битрейта : Постоянный
Битрейт : 640 Кбит/сек
Каналы : 2 канала
Расположение каналов : Front: L R
Частота : 48,0 КГц
Битовая глубина : 16 бит
Метод сжатия : С потерями
Размер потока : 492 Мбайт (6%)
Язык : English
Default : Нет
Forced : Нет
Меню
00:00:00.000 : en:00:00:00.000
00:06:34.976 : en:00:06:34.976
00:19:22.953 : en:00:19:22.953
00:36:07.957 : en:00:36:07.957
00:51:54.986 : en:00:51:54.986
01:06:09.924 : en:01:06:09.924
01:15:15.928 : en:01:15:15.928
01:21:11.950 : en:01:21:11.950
01:27:41.923 : en:01:27:41.923
01:30:55.992 : en:01:30:55.992
01:36:16.896 : en:01:36:16.896
01:40:47.958 : en:01:40:47.958
Скриншоты:
         
Время раздачи: 24/7
Вне форума [Профиль] [ЛС]
Показать сообщения:    
Ответить на тему

Текущее время: Сегодня 20:20

Часовой пояс: GMT + 3



Вы не можете начинать темы
Вы не можете отвечать на сообщения
Вы не можете редактировать свои сообщения
Вы не можете удалять свои сообщения
Вы не можете голосовать в опросах
Вы не можете прикреплять файлы к сообщениям
Вы не можете скачивать файлы