Сегодня идет свободное скачивание без начисления Download

Существо / Вечность / The Entity (Сидни Дж. Фьюри) (триллер, ужасы 1982) HDRip

Ответить на тему
 
Автор
Сообщение

Omen ®

Стаж: 4 года 1 месяц

Сообщений: 194382

Торрент-статистика

Пост 01-Июл-2013 20:41

[Цитировать]

Существо / Вечность / The Entity- Жанр: триллер, ужасы
Год выпуска: 1982
Производство: США
Описание фильма:
Жизнь молодой женщины Карлы Моран превратилась в сплошной кошмар с той самой ночи, когда она в ужасе проснулась от того, что кто-то невидимый избивает и насилует ее. Окружающие не воспринимают всерьез ее страхов, да и сама Карла уже не верит, что это действительно происходит с ней. Но все меняет появление в ее жизни врача-парапсихолога.
Режиссер: Сидни Дж. Фьюри
Актеры: Барбара Херши, Рон Силвер, Жаклин Брукс, Джордж Коу, Маргарет Блай, Алекс Рокко, Аллан Рич, Рэймонд Сингер, Майкл Олдредж, Ричард Брестофф
Продолжительность: 02:05:10
Качество видео: HDRip
Перевод: Многоголосый закадровый, Авторский одноголосый (А.Гаврилов)
Язык субтитров: отсутствует

Дата мировой премьеры: 30 сентября 1982
Дата российской премьеры: 24 сентября 2009, «Двадцатый Век Фокс СНГ»
Видеокодек: Xvid
Битрейт видео: ~1 257 Kbps
Размер кадра: 720 х 304
Аудио 1: AC3 2.0, 192 kbps - Многоголосый закадровый
Аудио 2: AC3 2.0, 192 kbps - Авторский (одноголосый А.Гаврилов)

MediaInfo:

Format : AVI
Format/Info : Audio Video Interleave
File size : 1.45 GiB
Duration : 2h 5mn
Overall bit rate : 1 655 Kbps
Writing application : VirtualDubModRus 1.5.10.2 (build 2542/release)
Writing library : VirtualDubMod build 2542/release
Video
ID : 0
Format : MPEG-4 Visual
Format profile : Advanced [email protected]
Format settings, BVOP : 1
Format settings, QPel : No
Format settings, GMC : No warppoints
Format settings, Matrix : Default (MPEG)
Codec ID : XVID
Codec ID/Hint : XviD
Duration : 2h 5mn
Bit rate : 1 257 Kbps
Width : 720 pixels
Height : 304 pixels
Display aspect ratio : 2.35:1
Frame rate : 23.976 fps
Color space : YUV
Chroma subsampling : 4:2:0
Bit depth : 8 bits
Scan type : Progressive
Compression mode : Lossy
Bits/(Pixel*Frame) : 0.239
Stream size : 1.10 GiB (76%)
Writing library : XviD 1.2.1 (UTC 2008-12-04)
Audio #1
ID : 1
Format : AC-3
Format/Info : Audio Coding 3
Mode extension : CM (complete main)
Format settings, Endianness : Big
Codec ID : 2000
Duration : 2h 5mn
Bit rate mode : Constant
Bit rate : 192 Kbps
Channel(s) : 2 channels
Channel positions : Front: L R
Sampling rate : 48.0 KHz
Bit depth : 16 bits
Compression mode : Lossy
Stream size : 172 MiB (12%)
Alignment : Split accross interleaves
Interleave, duration : 42 ms (1.00 video frame)
Interleave, preload duration : 500 ms
Title : Многоголосый закадровый
Audio #2
ID : 2
Format : AC-3
Format/Info : Audio Coding 3
Mode extension : CM (complete main)
Format settings, Endianness : Big
Codec ID : 2000
Duration : 2h 5mn
Bit rate mode : Constant
Bit rate : 192 Kbps
Channel(s) : 2 channels
Channel positions : Front: L R
Sampling rate : 48.0 KHz
Bit depth : 16 bits
Compression mode : Lossy
Stream size : 172 MiB (12%)
Alignment : Split accross interleaves
Interleave, duration : 42 ms (1.00 video frame)
Interleave, preload duration : 500 ms
Title : Авторский А.Гаврилов
Скриншоты:
         
         
Вне форума [Профиль] [ЛС]
Показать сообщения:    
Ответить на тему

Текущее время: Сегодня 20:20

Часовой пояс: GMT + 3



Вы не можете начинать темы
Вы не можете отвечать на сообщения
Вы не можете редактировать свои сообщения
Вы не можете удалять свои сообщения
Вы не можете голосовать в опросах
Вы не можете прикреплять файлы к сообщениям
Вы не можете скачивать файлы