Сегодня идет свободное скачивание без начисления Download

Последний раз, когда я видел Париж / The Last Time I Saw Paris (1954) DVDRip [H.264]

Ответить на тему
 
Автор
Сообщение

UndegraundMen ®

Стаж: 4 года 5 месяцев

Сообщений: 26499

Торрент-статистика

Пост 03-Июл-2013 03:02

[Цитировать]

Последний раз, когда я видел Париж / The Last Time I Saw Paris (1954) DVDRip [H.264] - Русское название: Последний раз, когда я видел Париж
Оригинальное название: The Last Time I Saw Paris
Год выпуска: 1954
Жанр: Драма, Мелодрама
Страна: США
Производство: Metro-Goldwyn-Mayer (MGM)
Описание фильма:
В послевоенном Париже встречаются военный журналист Чарльз Уиллс и американка, живущая во Франции. Очаровательная Хелен влюбляется в Чарльза. Они поженились, и у них рождается дочь Вики. Однако им недолго суждено быть вместе…
По рассказу Фрэнсиса Скотта Фицджеральда (Francis Scott Fitzgerald) "Возвращение в Вавилон" (Babylon Revisited).
Режиссер: Ричард Брукс
Сценарий: Джулиус Дж. Эпштейн, Филип Дж. Эпштейн, Ричард Брукс
Продюсер: Джек Каммингс
Актеры: Элизабет Тейлор, Ван Джонсон, Уолтер Пиджон, Донна Рид, Ева Габор, Курт Казнар, Джордж Доленц, Роджер Мур, Сэнди Десчер, Селия Ловски
Продолжительность: 01:55:50
Качество видео: DVDRip
Перевод: Многоголосый закадровый (ООО "Светла")
Субтитры: Отсутствуют

Дата мировой премьеры: 18 ноября 1954
Видеокодек: MPEG-4 AVC/H.264
Битрейт видео: ~1900 Кбит/сек
Размер кадра: 720x400
Аудиокодек: AC3 1.0
Битрейт аудио: 96 kbps

Реценция с кинопоиска от misterymn:

Страдание и любовь
Фильм очень красивый, трагичный, добрый, сердечный, волнующий и дающий спокойствие одновременно…
Хотя и картина старая, но впервые увидела ее пару лет назад. До сих пор помню ощущение обиды… обиды за все, за недопонимание, опрометчивость, любовь без обязательств, большие страдания, утрату матери и многое другое.
Маленькую девочку Хелен играет очаровательная малышка, я уж не говорю о ни с чем несравнимой Элизабет Тейлор.
Вся драма фильма сводится к семейным отношениям богатой Хелен и начинающего писателя Чарльза, который перманентно находится в проблемах… А она жаждет жизни. Начинаются серьезные проблемы, которые ведут к необратимым последствиям…
Сценарий не грандиозный, но сама картина снята так, что зачаровывает… а в конце добивает, доведя до невозможного оцепенения и, конечно же, слез.

MediaInfo:

Общее
Уникальный идентификатор : 220443801167810871105699082884982250431 (0xA5D7EE88A233A244B8D685B130501BBF)
Полное имя : H:\Downloads\Последний раз, когда я видел Париж.mkv
Формат : Matroska
Размер файла : 1,62 Гбайт
Продолжительность : 1 ч. 55 м.
Общий поток : 1998 Кбит/сек
Дата кодирования : UTC 2013-07-02 02:25:32
Программа кодирования : mkvmerge v6.0.0 ('Coming Up For Air') built on Jan 20 2013 09:52:00
Библиотека кодирования : libebml v1.3.0 + libmatroska v1.4.0
Видео
Идентификатор : 1
Формат : AVC
Формат/Информация : Advanced Video Codec
Профиль формата : [url=mailto:High@L3.1]High@L3.1[/url]
Параметр CABAC формата : Да
Параметр ReFrames формата : 8 кадров
Идентификатор кодека : V_MPEG4/ISO/AVC
Продолжительность : 1 ч. 55 м.
Битрейт : 1900 Кбит/сек
Ширина : 720 пикс.
Высота : 400 пикс.
Соотношение сторон : 16:9
Частота кадров : 23,976 кадр/сек
Цветовое пространство : YUV
Подвыборка цветности : 4:2:0
Битовая глубина : 8 бит
Тип развёртки : Прогрессивная
Бит/(Пиксели*Кадры) : 0.275
Размер потока : 1,51 Гбайт (93%)
Заголовок : The Last Time I Saw Paris
Библиотека кодирования : x264 core 125 r2208 d9d2288
Настройки программы : cabac=1 / ref=8 / deblock=1:-1:-1 / analyse=0x3:0x133 / me=umh / subme=9 / psy=1 / psy_rd=1.00:0.10 / mixed_ref=1 / me_range=32 / chroma_me=1 / trellis=2 / 8x8dct=1 / cqm=0 / deadzone=21,11 / fast_pskip=0 / chroma_qp_offset=-3 / threads=6 / lookahead_threads=1 / sliced_threads=0 / nr=0 / decimate=1 / interlaced=0 / bluray_compat=0 / constrained_intra=0 / bframes=3 / b_pyramid=2 / b_adapt=2 / b_bias=0 / direct=3 / weightb=1 / open_gop=0 / weightp=2 / keyint=250 / keyint_min=25 / scenecut=40 / intra_refresh=0 / rc_lookahead=60 / rc=2pass / mbtree=1 / bitrate=1900 / ratetol=1.0 / qcomp=0.60 / qpmin=10 / qpmax=51 / qpstep=4 / cplxblur=20.0 / qblur=0.5 / ip_ratio=1.40 / aq=1:1.00
Язык : English
Аудио
Идентификатор : 2
Формат : AC-3
Формат/Информация : Audio Coding 3
Расширение режима : CM (complete main)
Идентификатор кодека : A_AC3
Продолжительность : 1 ч. 55 м.
Вид битрейта : Постоянный
Битрейт : 96,0 Кбит/сек
Каналы : 1 канал
Расположение каналов : Front: C
Частота : 48,0 КГц
Битовая глубина : 16 бит
Метод сжатия : С потерями
Размер потока : 79,5 Мбайт (5%)
Заголовок : Многоголосый закадровый
Язык : Russian
Скриншоты:                    Время раздачи: с 13:00 до 01:00 по Москве (выходные круглосуточно), до 10 скачавших
Вне форума [Профиль] [ЛС]
Показать сообщения:    
Ответить на тему

Текущее время: Сегодня 03:37

Часовой пояс: GMT + 3



Вы не можете начинать темы
Вы не можете отвечать на сообщения
Вы не можете редактировать свои сообщения
Вы не можете удалять свои сообщения
Вы не можете голосовать в опросах
Вы не можете прикреплять файлы к сообщениям
Вы не можете скачивать файлы