Сегодня идет свободное скачивание без начисления Download

Ублюдок из Каролины / Bastard Out of Carolina (Анжелика Хьюстон) (Драма 1996) DVDRip

Ответить на тему
 
Автор
Сообщение

Omen ®

Стаж: 4 года 1 месяц

Сообщений: 194359

Торрент-статистика

Пост 03-Июл-2013 14:55

[Цитировать]

Ублюдок из Каролины
Bastard Out of Carolina
- Год выпуска: 1996
Жанр: Драма
Описание фильма:
Фильм о бедной семье из Южной Каролины. Энни, мать одиночка с двумя дочерьми выходит замуж за Вэйда. Боясь остаться снова одной, она предпочитает не замечать, как новый муж жестоко обращается с ее старшей дочерью...
Режиссер: Анжелика Хьюстон
Актеры: Дженнифер Джейсон Ли, Рон Элдард, Гленн Хедли, Лайл Ловетт, Джина Мэлоун, Дермот Малруни, Кристина Риччи, Майкл Рукер, Дайана Скаруид, Сьюзан Трэйлор, Грэйс Забриски, Ричард Тодд Салливан, Пэт Хингл, Лайндли Майер
Продолжительность: 01:38:02
Качество видео: DVDRip
Перевод: Одноголосый закадровый
Озвучка / Автор перевода: Андрей Дольский

Видеокодек: Xvid
Битрейт видео: ~1679 Кбит/с
Размер кадра: 704х536
Аудио 1: Русский, AC3 (2 ch), 192 kb/s
Аудио 2: Английский, AC3 (2 ch), 192 kb/s
Сэмпл: Ссылка

MediaInfo:

General
Complete name : E:\Фильмы\Ubljudok.iz.Karoliny.1996.DVDRip.avi
Format : AVI
Format/Info : Audio Video Interleave
File size : 1.42 GiB
Duration : 1h 38mn
Overall bit rate : 2 078 Kbps
Writing application : VirtualDubModRus 1.5.10.2 (build 2542/release)
Writing library : VirtualDubMod build 2542/release
Video
ID : 0
Format : MPEG-4 Visual
Format profile : Advanced [email protected]
Format settings, BVOP : 4
Format settings, QPel : No
Format settings, GMC : No warppoints
Format settings, Matrix : Default (MPEG)
Codec ID : XVID
Codec ID/Hint : XviD
Duration : 1h 38mn
Bit rate : 1 679 Kbps
Width : 704 pixels
Height : 536 pixels
Display aspect ratio : 4:3
Frame rate : 23.976 fps
Color space : YUV
Chroma subsampling : 4:2:0
Bit depth : 8 bits
Scan type : Progressive
Compression mode : Lossy
Bits/(Pixel*Frame) : 0.186
Stream size : 1.15 GiB (81%)
Writing library : XviD 1.2.1 (UTC 2008-12-04)
Audio #1
ID : 1
Format : AC-3
Format/Info : Audio Coding 3
Mode extension : CM (complete main)
Format settings, Endianness : Big
Codec ID : 2000
Duration : 1h 38mn
Bit rate mode : Constant
Bit rate : 192 Kbps
Channel(s) : 2 channels
Channel positions : Front: L R
Sampling rate : 48.0 KHz
Bit depth : 16 bits
Compression mode : Lossy
Stream size : 135 MiB (9%)
Alignment : Split accross interleaves
Interleave, duration : 42 ms (1.00 video frame)
Interleave, preload duration : 500 ms
Audio #2
ID : 2
Format : AC-3
Format/Info : Audio Coding 3
Mode extension : CM (complete main)
Format settings, Endianness : Big
Codec ID : 2000
Duration : 1h 38mn
Bit rate mode : Constant
Bit rate : 192 Kbps
Channel(s) : 2 channels
Channel positions : Front: L R
Sampling rate : 48.0 KHz
Bit depth : 16 bits
Compression mode : Lossy
Stream size : 135 MiB (9%)
Alignment : Split accross interleaves
Interleave, duration : 42 ms (1.00 video frame)
Interleave, preload duration : 500 ms
Скриншоты:
         
Вне форума [Профиль] [ЛС]
Показать сообщения:    
Ответить на тему

Текущее время: Сегодня 14:48

Часовой пояс: GMT + 3



Вы не можете начинать темы
Вы не можете отвечать на сообщения
Вы не можете редактировать свои сообщения
Вы не можете удалять свои сообщения
Вы не можете голосовать в опросах
Вы не можете прикреплять файлы к сообщениям
Вы не можете скачивать файлы