Сегодня идет свободное скачивание без начисления Download

Крушение лун / Crash of Moons (Холисворт Морс) (Фантастика, Приключения, Семейный 1954) DVDRip

Ответить на тему
 
Автор
Сообщение

Omen ®

Стаж: 4 года 1 месяц

Сообщений: 194394

Торрент-статистика

Пост 03-Июл-2013 15:36

[Цитировать]

Крушение лун / Crash of Moons - Год выпуска: 1954
Жанр: Фантастика, Приключения, Семейный
Описание фильма:
Полнометражная версия популярного в 1950-х годах космическо-приключенческого шоу о Рокки Джонсе, космическом рейнджере.
В этом фильме ему предстоит противостоять катастрофе галактического масштаба: блуждающие луны Посида и Негато дрейфующие в космосе грозят гибели космической станции OW-9, на которой находятся друзья Рокки. Но как выясняется это не самая страшная угроза от этих небесных тел
Режиссер: Холисворт Морс
Актеры: Ричард Крейн, Скотт Бэккет, Сали Менсфаилд, Роберт Лиден, Морис Касс, Пэтси Персон
Продолжительность: 01:12:06
Качество видео: DVDRip
Перевод: Одноголосый закадровый
Автор перевода: Трамвай фильм
Релиз группа: Трамвай фильм

Видеокодек: Xvid
Битрейт видео: ~1487 kb/s
Размер кадра: 640х480
Аудиокодек: MP3
Битрейт аудио: 128 kb/s, 2 канала

МедиаИнфо

Техданные

Format : AVI
Format/Info : Audio Video Interleave
File size : 841 MiB
Duration : 1h 12mn
Overall bit rate : 1 631 Kbps
Video
ID : 0
Format : MPEG-4 Visual
Format profile : [email protected]
Format settings, BVOP : No
Format settings, QPel : No
Format settings, GMC : No warppoints
Format settings, Matrix : Default (H.263)
Codec ID : XVID
Codec ID/Hint : XviD
Duration : 1h 12mn
Bit rate : 1 487 Kbps
Width : 640 pixels
Height : 480 pixels
Display aspect ratio : 4:3
Frame rate : 23.976 fps
Original frame rate : 23.000 fps
Color space : YUV
Chroma subsampling : 4:2:0
Bit depth : 8 bits
Scan type : Progressive
Compression mode : Lossy
Bits/(Pixel*Frame) : 0.202
Stream size : 767 MiB (91%)
Writing library : XviD 1.2.1 (UTC 2008-12-04)
Audio
ID : 1
Format : MPEG Audio
Format version : Version 1
Format profile : Layer 3
Mode : Joint stereo
Mode extension : MS Stereo
Codec ID : 55
Codec ID/Hint : MP3
Duration : 1h 12mn
Bit rate mode : Constant
Bit rate : 128 Kbps
Channel(s) : 2 channels
Sampling rate : 44.1 KHz
Compression mode : Lossy
Stream size : 66.0 MiB (8%)
Alignment : Aligned on interleaves
Interleave, duration : 26 ms (0.63 video frame)
Writing library : LAME3.98

Рецензия, отзыв о фильме

За 5 лет, что я занимаюсь ретро-фантастикой я не видел более "классического" фильма про космические приключения: здесь есть всё - бластеры, ставшие каноническими для последующей фантастики; ракеты с лестницами; угловатые приборы и телевизоры (вместо ЖК дисплеев); расчеты производятся карандашом на бумаге, а навигация осуществляется по бумажной карте и печатному справочнику. Не говоря уже о костюмах с декоративными плащами, треугольными эмблемами, "молниями" и т.п.
Эта та фантастика, которую видел романтичный сценарист и зритель в далекие 50-е, когда мечта о космосе была еще не достижима.
Разумеется не обошлось без политики. В фильме действует "Союз Миров" (United Worlds), видимо аналог ООН. А так же тоталитарная правительница планеты Офишес - это явно камень в огород соцлагеря. Любители классики фантастики безусловно получат массу приятных эмоций!
Но главное эта раздача пример правильного использования торрентов: ибо фильм в Общественном достоянии!
Скриншоты:
       
       
Вне форума [Профиль] [ЛС]
Показать сообщения:    
Ответить на тему

Текущее время: Сегодня 22:48

Часовой пояс: GMT + 3



Вы не можете начинать темы
Вы не можете отвечать на сообщения
Вы не можете редактировать свои сообщения
Вы не можете удалять свои сообщения
Вы не можете голосовать в опросах
Вы не можете прикреплять файлы к сообщениям
Вы не можете скачивать файлы