Сегодня идет свободное скачивание без начисления Download

Чудеса / Крестный отец из Кантона / Мистер Гонконг / Ji ji / The Canton Godfather / Miracles (Джеки Чан) (Боевик, Комедия, Криминал 1989) BDRip

Ответить на тему
 
Автор
Сообщение

Omen ®

Стаж: 4 года 1 месяц

Сообщений: 194359

Торрент-статистика

Пост 05-Июл-2013 23:42

[Цитировать]

Чудеса / Крестный отец из Кантона / Мистер Гонконг / Ji ji / The Canton Godfather / Miracles- Год выпуска: 1989
Жанр: Боевик, Комедия, Криминал
Описание фильма:
В поисках лучшей жизни и без гроша в кармане Чарли приезжает в Гонконг. Свои последние центы он отдает бедной торговке за цветок розы, который должен принести ему удачу. И «счастливый» случай не заставил себя ждать. Чарли становится невольным участником перестрелки двух мафиозных кланов и выносит из-под огня главного босса одной из гангстерских группировок.
Умирая, главарь мафии назначает Чарли своим наследником и Большим Братом своего клана. В роли «крестного отца» доброй половины криминального Гонконга Чарли приходится проявлять чудеса ловкости и изобретательности…
Режиссер: Джеки Чан
Актеры: Джеки Чан, Анита Муи, Ричард Нг, Танг Гуа, А Ли, Хсианг Ко, Ма Ву Билл, Танг Кенни, Би Энтони, Чан Лоуренс, Джин Чен
Продолжительность: 02:07:05
Качество видео: BDRip
Перевод: 3xПрофессиональный многоголосый закадровый + 2xАвторский одноголосый закадровый

Дата мировой премьеры: 15 июня 1989
Дата выхода DVD релиза: 28 октября 2008
Видеокодек: Xvid
Битрейт видео: ~1807 kbps
Размер кадра: 720x304
Audio #1: 48 kHz, AC3 Dolby Digital, 2/0 (L,R) ch, ~192 kbps - Профессиональный (многоголосый закадровый) - ВГТРК
Audio #2: 48 kHz, AC3 Dolby Digital, 3/2 (L,C,R,l,r) + LFE ch, ~448 kbps - Оригинал (Китайский)
Audio #3: 48 kHz, AC3 Dolby Digital, 2/0 (L,R) ch, ~192 kbps - Профессиональный (многоголосый закадровый) - Инис / внешняя
Audio #4: 48 kHz, AC3 Dolby Digital, 2/0 (L,R) ch, ~192 kbps - Профессиональный (многоголосый закадровый) - ТНТ / внешняя
Audio #5: 48 kHz, AC3 Dolby Digital, 3/2 (L,C,R,l,r) + LFE ch, ~384 kbps - Авторский (одноголосый закадровый) - Немахов / внешняя
Audio #6: 48 kHz, AC3 Dolby Digital, 3/2 (L,C,R,l,r) + LFE ch, ~448 kbps - Авторский (одноголосый закадровый) - Визгунов / внешняя

&

MI

Общее
Полное имя : E:\Фильмы М\The.Canton.Godfather.1989.BDRip\The Canton Godfather.1989.BDRip.avi
Формат : AVI
Формат/Информация : Audio Video Interleave
Профиль формата : OpenDML
Размер файла : 2,19 Гбайт
Продолжительность : 2 ч. 7 м.
Общий поток : 2465 Кбит/сек
Название фильма : The Canton Godfather.1989.BDRip
Режиссёр : rip by maygli
Программа кодирования : VirtualDubModRus 1.5.10.2 (build 2542/release)
Правообладатель : ... (RG Rulya74)
Видео
Идентификатор : 0
Формат : MPEG-4 Visual
Профиль формата : Advanced [email protected]
Параметр BVOP формата : 1
Параметр QPel формата : Нет
Параметр GMC формата : Без точки перехода
Параметр матрицы формата : Выборочная
Режим смешивания : Сжатый битовый поток
Идентификатор кодека : XVID
Идентификатор кодека/Подсказка : XviD
Продолжительность : 2 ч. 7 м.
Битрейт : 1807 Кбит/сек
Ширина : 720 пикселей
Высота : 304 пикселя
Соотношение сторон : 2,35:1
Частота кадров : 23,976 кадра/сек
Цветовое пространство : YUV
Субдискретизация насыщенности : 4:2:0
Битовая глубина : 8 бит
Тип развёртки : Прогрессивная
Метод сжатия : С потерями
Бит/(Пиксели*Кадры) : 0.344
Размер потока : 1,60 Гбайт (73%)
Библиотека кодирования : XviD 65
Аудио #1
Идентификатор : 1
Формат : AC-3
Формат/Информация : Audio Coding 3
Расширение режима : CM (complete main)
Параметр Endianness формата : Big
Идентификатор кодека : 2000
Продолжительность : 2 ч. 7 м.
Вид битрейта : Постоянный
Битрейт : 192 Кбит/сек
Каналы : 2 канала
Расположение каналов : Front: L R
Частота : 48,0 КГц
Битовая глубина : 16 бит
Метод сжатия : С потерями
Размер потока : 175 Мбайт (8%)
Выравнивание : Разделение по промежуткам
Продолжительность промежутка : 42 мс. (1,00 видеокадр)
Время предзагрузки промежутка : 500 мс.
Заголовок : Профессиональный (многоголосый закадровый) - ВГТРК
Аудио #2
Идентификатор : 2
Формат : AC-3
Формат/Информация : Audio Coding 3
Расширение режима : CM (complete main)
Параметр Endianness формата : Big
Идентификатор кодека : 2000
Продолжительность : 2 ч. 6 м.
Вид битрейта : Постоянный
Битрейт : 448 Кбит/сек
Каналы : 6 каналов
Расположение каналов : Front: L C R, Side: L R, LFE
Частота : 48,0 КГц
Битовая глубина : 16 бит
Метод сжатия : С потерями
Размер потока : 407 Мбайт (18%)
Выравнивание : Разделение по промежуткам
Продолжительность промежутка : 42 мс. (1,00 видеокадр)
Время предзагрузки промежутка : 500 мс.
Заголовок : Оригинал (Китайский)
Скриншоты:
           
Вне форума [Профиль] [ЛС]
Похожие темы
Форум Тема Автор Торрент Отв. Посл. сообщение
./templates/default/images/folder_dl.gif Подшивки журналов и газет Подборка журналов | Приключения, тайны, чудеса [2005...2012] [PDF, DjVu] sashau
1 | 0

0 | 1949

5

2013-01-10 15:20
sashau Последнее
./templates/default/images/folder_dl.gif Документальные фильмы и телепередачи Чудеса океана / Ocean Wonderland (2003) BDRip 1080p | 3D-Video Omen
1 | 0

0 | 547

23

2013-01-10 21:05
Omen Последнее
./templates/default/images/folder_dl.gif Подшивки журналов и газет Подшивка журналов | Чудеса и приключения [1992 ... 2014] [DJVU; PDF; CHM]. Обновлено 25.05.2014 Omen
1 | 0

0 | 1095

7

2014-05-26 09:08
Omen Последнее
./templates/default/images/folder_dl.gif Подшивки журналов и газет Подборка газет | Приключения, тайны, чудеса (2001-2014) [PDF, DJVU] Omen
1 | 0

0 | 832

6

2014-11-16 23:11
Omen Последнее
Показать сообщения:    
Ответить на тему

Текущее время: Сегодня 14:52

Часовой пояс: GMT + 3



Вы не можете начинать темы
Вы не можете отвечать на сообщения
Вы не можете редактировать свои сообщения
Вы не можете удалять свои сообщения
Вы не можете голосовать в опросах
Вы не можете прикреплять файлы к сообщениям
Вы не можете скачивать файлы