Сегодня идет свободное скачивание без начисления Download

Наемные убийцы / Assassins (Ричард Доннер) (Боевик, Триллер, Криминал 1995) BDRip [H.264]

Ответить на тему
 
Автор
Сообщение

Omen ®

Стаж: 4 года 1 месяц

Сообщений: 194390

Торрент-статистика

Пост 05-Июл-2013 23:46

[Цитировать]

Наемные убийцы / Assassins «На обочине жизни. В бизнесе смерти. У него есть повод, чтобы жить дальше.»- Год выпуска: 1995
Производство: США, Франция
Жанр: Боевик, Триллер, Криминал
Описание фильма:
Роберт Рэт — лучший киллер в округе, но кодекс чести и чувство долга, что некогда составляли часть его смертельной карьеры, исчезли. Мир, возникший после Холодной войны, переполнен «отморозками». Рэт хочет «завязать».
Другой киллер, Мигель Бэйн, амбициозный молодой человек — напротив желает стать первым в своем деле, и знает, как это сделать: уничтожить Рэта. Действие разворачивается стремительно и непредсказуемо, когда Сильвестр Сталлоне в роли Рэта и Антонио Бандерас в роли Бэйна защищают свою профессиональную честь наемных убийц.
Джулианна Мур играет хитрого хакера, затянутого в жестокую схватку киллерского дуэта.
Режиссер: Ричард Доннер
Актеры: Сильвестр Сталлоне, Антонио Бандерас, Джулианна Мур, Анатолий Давыдов, Мьюз Уотсон, Стив Кэхэн, Келли Роуэн, Рид Даймонд, Кай Вулфф, Керри Скалски
Продолжительность: 02:12:44
Качество видео: BDRip (исходник: BDRemux 1080р)
Перевод: 2х Дублированный, двухголосый закадровый, 5х одноголосый закадровый, многоголосый закадровый украинский
Язык субтитров: Русские, английские (полные)
Вид субтитров: Вшитые, отключаемые (UTF-8)

Рейтинг 16+: зрителям, достигшим 16 лет.
Дата мировой премьеры: 6 октября 1995
Дата выхода DVD релиза: 14 июля 2011
Видеокодек: MPEG-4 AVC/H.264
Битрейт видео: ~3945 Кбит/сек
Размер кадра: 1152*648 (16:9)
Аудио 1: AC3, 384 Кбит/сек, 48.0 КГц, 16 бит, 6 каналов (Дубляж)
Аудио 2: AC3, 448 Кбит/сек, 48.0 КГц, 16 бит, 6 каналов (Английский)
Аудио 3: AC3, 192 Кбит/сек, 48.0 КГц, 16 бит, 2 канала (Двухголосый.НТВ) (отдельно)
Аудио 4: AC3, 192 Кбит/сек, 48.0 КГц, 16 бит, 2 канала (Дубляж.Варус-Видео) (отдельно)
Аудио 5: AC3, 384 Кбит/сек, 48.0 КГц, 16 бит, 6 каналов (Авторский.CDV) (отдельно)
Аудио 6: AC3, 448 Кбит/сек, 48.0 КГц, 16 бит, 6 каналов (Авторский.Гаврилов) (отдельно)
Аудио 7: AC3, 192 Кбит/сек, 48.0 КГц, 16 бит, 2 канала (Авторский.Кашкин) (отдельно)
Аудио 8: AC3, 192 Кбит/сек, 48.0 КГц, 16 бит, 2 канала (Авторский.Визгунов) (отдельно)
Аудио 9: AC3, 448 Кбит/сек, 48.0 КГц, 16 бит, 6 каналов (Авторский.Живов) (отдельно)
Аудио 10: AC3, 192 Кбит/сек, 48.0 КГц, 16 бит, 2 канала (Многоголосый.Украинский) (отдельно)
Сэмпл: Ссылка

MediaInfo

Код:
Полное имя                               : B:\Фильмы\Assassins.1995.BDRip-AVC\Assassins.1995.BDRip-AVC.mkv
Формат                                   : Matroska
Версия формата                           : Version 4 / Version 2
Размер файла                             : 4,43 Гбайт
Продолжительность                        : 2 ч. 12 м.
Общий поток                              : 4771 Кбит/сек
Название фильма                          : Наемные убийцы / Убийцы / Assassins (1995) BDRip-AVC
Дата кодирования                         : UTC 2013-07-03 10:02:35
Программа кодирования                    : mkvmerge v6.3.0 ('You can't stop me!') built on Jun 28 2013 20:09:41
Библиотека кодирования                   : libebml v1.3.0 + libmatroska v1.4.0
Attachment                               : Yes
Видео
Идентификатор                            : 1
Формат                                   : AVC
Формат/Информация                        : Advanced Video Codec
Профиль формата                          : [url=mailto:[email protected]][email protected][/url]
Параметр CABAC формата                   : Да
Параметр ReFrames формата                : 11 кадров
Идентификатор кодека                     : V_MPEG4/ISO/AVC
Продолжительность                        : 2 ч. 12 м.
Битрейт                                  : 3945 Кбит/сек
Ширина                                   : 1152 пикселя
Высота                                   : 648 пикселей
Соотношение сторон                       : 16:9
Режим частоты кадров                     : Постоянный
Частота кадров                           : 23,976 кадра/сек
Цветовое пространство                    : YUV
Субдискретизация насыщенности            : 4:2:0
Битовая глубина                          : 8 бит
Тип развёртки                            : Прогрессивная
Бит/(Пиксели*Кадры)                      : 0.220
Размер потока                            : 3,57 Гбайт (81%)
Библиотека кодирования                   : x264 core 116 r2057 0ba8a9c
Настройки программы                      : cabac=1 / ref=11 / deblock=1:-2:-1 / analyse=0x3:0x113 / me=umh / subme=10 / psy=1 / psy_rd=1.00:0.00 / mixed_ref=1 / me_range=32 / chroma_me=1 / trellis=2 / 8x8dct=1 / cqm=0 / deadzone=21,11 / fast_pskip=0 / chroma_qp_offset=-2 / threads=6 / sliced_threads=0 / nr=0 / decimate=1 / interlaced=0 / bluray_compat=0 / constrained_intra=0 / bframes=10 / b_pyramid=2 / b_adapt=2 / b_bias=0 / direct=1 / weightb=1 / open_gop=0 / weightp=2 / keyint=250 / keyint_min=23 / scenecut=40 / intra_refresh=0 / rc=2pass / mbtree=0 / bitrate=3945 / ratetol=1.0 / qcomp=0.60 / qpmin=0 / qpmax=69 / qpstep=4 / cplxblur=20.0 / qblur=0.5 / ip_ratio=1.40 / pb_ratio=1.30 / aq=1:1.00 / zones=182100,190800,b=0.35
Язык                                     : English
Default                                  : Да
Forced                                   : Нет
Аудио #1
Идентификатор                            : 2
Формат                                   : AC-3
Формат/Информация                        : Audio Coding 3
Расширение режима                        : CM (complete main)
Параметр Endianness формата              : Big
Идентификатор кодека                     : A_AC3
Продолжительность                        : 2 ч. 12 м.
Вид битрейта                             : Постоянный
Битрейт                                  : 384 Кбит/сек
Каналы                                   : 6 каналов
Расположение каналов                     : Front: L C R, Side: L R, LFE
Частота                                  : 48,0 КГц
Битовая глубина                          : 16 бит
Метод сжатия                             : С потерями
Размер потока                            : 365 Мбайт (8%)
Заголовок                                : DUB
Язык                                     : Russian
Default                                  : Да
Forced                                   : Нет
Аудио #2
Идентификатор                            : 3
Формат                                   : AC-3
Формат/Информация                        : Audio Coding 3
Расширение режима                        : CM (complete main)
Параметр Endianness формата              : Big
Идентификатор кодека                     : A_AC3
Продолжительность                        : 2 ч. 12 м.
Вид битрейта                             : Постоянный
Битрейт                                  : 448 Кбит/сек
Каналы                                   : 6 каналов
Расположение каналов                     : Front: L C R, Side: L R, LFE
Частота                                  : 48,0 КГц
Битовая глубина                          : 16 бит
Метод сжатия                             : С потерями
Размер потока                            : 426 Мбайт (9%)
Язык                                     : English
Default                                  : Нет
Forced                                   : Нет
Текст #1
Идентификатор                            : 4
Формат                                   : UTF-8
Идентификатор кодека                     : S_TEXT/UTF8
Идентификатор кодека/Информация          : UTF-8 Plain Text
Язык                                     : Russian
Default                                  : Нет
Forced                                   : Нет
Текст #2
Идентификатор                            : 5
Формат                                   : UTF-8
Идентификатор кодека                     : S_TEXT/UTF8
Идентификатор кодека/Информация          : UTF-8 Plain Text
Язык                                     : English
Default                                  : Нет
Forced                                   : Нет
Меню
00:00:00.000                             : en:Marks Past and Present
00:05:35.293                             : en:Next Mark
00:10:00.934                             : en:Another Assassin
00:14:44.467                             : en:Officers Down, Suspect Gone
00:17:39.100                             : en:New Wheels
00:19:01.640                             : en:Chitchat with a Passenger
00:24:35.015                             : en:Reckless Driving
00:30:03.719                             : en:Bishop Takes Rook Pawn
00:31:34.184                             : en:New Mark
00:34:57.804                             : en:A Watchful Eye
00:36:47.414                             : en:Furry Mischief
00:37:56.774                             : en:The Players Gather
00:44:13.442                             : en:Miguel Strikes
00:48:12.473                             : en:The Unfinished Mark
00:55:02.216                             : en:Death at Close Quarters
00:59:54.925                             : en:Birthday Blast
01:03:05.699                             : en:Two Nobody's Spending Time Together
01:06:50.506                             : en:Contact Reassigned
01:08:38.448                             : en:A Way to Make a Million
01:12:37.270                             : en:Payoff for Keeps
01:17:07.331                             : en:New Arrangements
01:20:52.556                             : en:The Desired Mark
01:22:00.499                             : en:Memory Hotel
01:27:24.281                             : en:The Day of the Dead
01:31:34.989                             : en:Cemetery Cat-and-Mouse
01:35:18.004                             : en:The Waiting Game
01:41:39.802                             : en:Warm and Happy Stories
01:42:59.840                             : en:Out of Patience
01:46:12.116                             : en:The Lady Takes a Chance
01:47:33.530                             : en:Final Chitchat
01:52:24.196                             : en:Pulling the Trigger
01:55:42.602                             : en:Bullets Among the Ruins
01:57:09.773                             : en:Falling Down
01:59:17.984                             : en:The Contractor
02:01:53.640                             : en:The Correct Mark
02:03:05.712                             : en:"No Goodbyes"
02:06:34.879                             : en:End Credits
-----------------------------------------------------------------------------------
Полное имя                               : B:\Фильмы\Assassins.1995.BDRip-AVC\Assassins.1995.BDRip-AVC.NTV.ac3
Формат                                   : Matroska
Версия формата                           : Version 4 / Version 2
Размер файла                             : 183 Мбайт
Продолжительность                        : 2 ч. 12 м.
Режим общего битрейта                    : Постоянный
Общий поток                              : 193 Кбит/сек
Трек                                     : Наемные убийцы / Убийцы / Assassins (1995) BDRip-AVC
Дата кодирования                         : UTC 2013-07-03 09:58:08
Программа кодирования                    : mkvmerge v6.3.0 ('You can't stop me!') built on Jun 28 2013 20:09:41
Библиотека кодирования                   : libebml v1.3.0 + libmatroska v1.4.0
Attachment                               : Yes
Аудио
Идентификатор                            : 1
Формат                                   : AC-3
Формат/Информация                        : Audio Coding 3
Расширение режима                        : CM (complete main)
Параметр Endianness формата              : Big
Идентификатор кодека                     : A_AC3
Продолжительность                        : 2 ч. 12 м.
Вид битрейта                             : Постоянный
Битрейт                                  : 192 Кбит/сек
Каналы                                   : 2 канала
Расположение каналов                     : Front: L R
Частота                                  : 48,0 КГц
Битовая глубина                          : 16 бит
Метод сжатия                             : С потерями
Размер потока                            : 182 Мбайт (99%)
Заголовок                                : DVO - NTV
Язык                                     : Russian
Default                                  : Нет
Forced                                   : Нет
-----------------------------------------------------------------------------------
Полное имя                               : B:\Фильмы\Assassins.1995.BDRip-AVC\Assassins.1995.BDRip-AVC.Varus-Video.ac3
Формат                                   : Matroska
Версия формата                           : Version 4 / Version 2
Размер файла                             : 183 Мбайт
Продолжительность                        : 2 ч. 12 м.
Режим общего битрейта                    : Постоянный
Общий поток                              : 193 Кбит/сек
Трек                                     : Наемные убийцы / Убийцы / Assassins (1995) BDRip-AVC
Дата кодирования                         : UTC 2013-07-03 10:00:01
Программа кодирования                    : mkvmerge v6.3.0 ('You can't stop me!') built on Jun 28 2013 20:09:41
Библиотека кодирования                   : libebml v1.3.0 + libmatroska v1.4.0
Attachment                               : Yes
Аудио
Идентификатор                            : 1
Формат                                   : AC-3
Формат/Информация                        : Audio Coding 3
Расширение режима                        : CM (complete main)
Параметр Endianness формата              : Big
Идентификатор кодека                     : A_AC3
Продолжительность                        : 2 ч. 12 м.
Вид битрейта                             : Постоянный
Битрейт                                  : 192 Кбит/сек
Каналы                                   : 2 канала
Расположение каналов                     : Front: L R
Частота                                  : 48,0 КГц
Битовая глубина                          : 16 бит
Метод сжатия                             : С потерями
Размер потока                            : 182 Мбайт (99%)
Заголовок                                : DUB - Varus-Video
Язык                                     : Russian
Default                                  : Нет
Forced                                   : Нет
-----------------------------------------------------------------------------------
Полное имя                               : B:\Фильмы\Assassins.1995.BDRip-AVC\Assassins.1995.BDRip-AVC.CDV.ac3
Формат                                   : AC-3
Формат/Информация                        : Audio Coding 3
Размер файла                             : 365 Мбайт
Продолжительность                        : 2 ч. 12 м.
Режим общего битрейта                    : Постоянный
Общий поток                              : 384 Кбит/сек
Аудио
Формат                                   : AC-3
Формат/Информация                        : Audio Coding 3
Расширение режима                        : CM (complete main)
Параметр Endianness формата              : Big
Продолжительность                        : 2 ч. 12 м.
Вид битрейта                             : Постоянный
Битрейт                                  : 384 Кбит/сек
Каналы                                   : 6 каналов
Расположение каналов                     : Front: L C R, Side: L R, LFE
Частота                                  : 48,0 КГц
Битовая глубина                          : 16 бит
Метод сжатия                             : С потерями
Размер потока                            : 365 Мбайт (100%)
-----------------------------------------------------------------------------------
Полное имя                               : B:\Фильмы\Assassins.1995.BDRip-AVC\Assassins.1995.BDRip-AVC.Gavrilov.ac3
Формат                                   : AC-3
Формат/Информация                        : Audio Coding 3
Размер файла                             : 425 Мбайт
Продолжительность                        : 2 ч. 12 м.
Режим общего битрейта                    : Постоянный
Общий поток                              : 448 Кбит/сек
Аудио
Формат                                   : AC-3
Формат/Информация                        : Audio Coding 3
Расширение режима                        : CM (complete main)
Параметр Endianness формата              : Big
Продолжительность                        : 2 ч. 12 м.
Вид битрейта                             : Постоянный
Битрейт                                  : 448 Кбит/сек
Каналы                                   : 6 каналов
Расположение каналов                     : Front: L C R, Side: L R, LFE
Частота                                  : 48,0 КГц
Битовая глубина                          : 16 бит
Метод сжатия                             : С потерями
Размер потока                            : 425 Мбайт (100%)
-----------------------------------------------------------------------------------
Полное имя                               : B:\Фильмы\Assassins.1995.BDRip-AVC\Assassins.1995.BDRip-AVC.Kashkin.ac3
Формат                                   : AC-3
Формат/Информация                        : Audio Coding 3
Размер файла                             : 182 Мбайт
Продолжительность                        : 2 ч. 12 м.
Режим общего битрейта                    : Постоянный
Общий поток                              : 192 Кбит/сек
Аудио
Формат                                   : AC-3
Формат/Информация                        : Audio Coding 3
Расширение режима                        : CM (complete main)
Параметр Endianness формата              : Big
Продолжительность                        : 2 ч. 12 м.
Вид битрейта                             : Постоянный
Битрейт                                  : 192 Кбит/сек
Каналы                                   : 2 канала
Расположение каналов                     : Front: L R
Частота                                  : 48,0 КГц
Битовая глубина                          : 16 бит
Метод сжатия                             : С потерями
Размер потока                            : 182 Мбайт (100%)
-----------------------------------------------------------------------------------
Полное имя                               : B:\Фильмы\Assassins.1995.BDRip-AVC\Assassins.1995.BDRip-AVC.Vizgunov.ac3
Формат                                   : AC-3
Формат/Информация                        : Audio Coding 3
Размер файла                             : 182 Мбайт
Продолжительность                        : 2 ч. 12 м.
Режим общего битрейта                    : Постоянный
Общий поток                              : 192 Кбит/сек
Аудио
Формат                                   : AC-3
Формат/Информация                        : Audio Coding 3
Расширение режима                        : CM (complete main)
Параметр Endianness формата              : Big
Продолжительность                        : 2 ч. 12 м.
Вид битрейта                             : Постоянный
Битрейт                                  : 192 Кбит/сек
Каналы                                   : 2 канала
Расположение каналов                     : Front: L R
Частота                                  : 48,0 КГц
Битовая глубина                          : 16 бит
Метод сжатия                             : С потерями
Размер потока                            : 182 Мбайт (100%)
-----------------------------------------------------------------------------------
Полное имя                               : B:\Фильмы\Assassins.1995.BDRip-AVC\Assassins.1995.BDRip-AVC.Zhivov.ac3
Формат                                   : AC-3
Формат/Информация                        : Audio Coding 3
Размер файла                             : 425 Мбайт
Продолжительность                        : 2 ч. 12 м.
Режим общего битрейта                    : Постоянный
Общий поток                              : 448 Кбит/сек
Аудио
Формат                                   : AC-3
Формат/Информация                        : Audio Coding 3
Расширение режима                        : CM (complete main)
Параметр Endianness формата              : Big
Продолжительность                        : 2 ч. 12 м.
Вид битрейта                             : Постоянный
Битрейт                                  : 448 Кбит/сек
Каналы                                   : 6 каналов
Расположение каналов                     : Front: L C R, Side: L R, LFE
Частота                                  : 48,0 КГц
Битовая глубина                          : 16 бит
Метод сжатия                             : С потерями
Размер потока                            : 425 Мбайт (100%)
-----------------------------------------------------------------------------------
Полное имя                               : B:\Фильмы\Assassins.1995.BDRip-AVC\Assassins.1995.BDRip-AVC.UKR.ac3
Формат                                   : AC-3
Формат/Информация                        : Audio Coding 3
Размер файла                             : 182 Мбайт
Продолжительность                        : 2 ч. 12 м.
Режим общего битрейта                    : Постоянный
Общий поток                              : 192 Кбит/сек
Аудио
Формат                                   : AC-3
Формат/Информация                        : Audio Coding 3
Расширение режима                        : CM (complete main)
Параметр Endianness формата              : Big
Продолжительность                        : 2 ч. 12 м.
Вид битрейта                             : Постоянный
Битрейт                                  : 192 Кбит/сек
Каналы                                   : 2 канала
Расположение каналов                     : Front: L R
Частота                                  : 48,0 КГц
Битовая глубина                          : 16 бит
Метод сжатия                             : С потерями
Размер потока                            : 182 Мбайт (100%)
Скриншоты:
       
Вне форума [Профиль] [ЛС]
Показать сообщения:    
Ответить на тему

Текущее время: Сегодня 17:20

Часовой пояс: GMT + 3



Вы не можете начинать темы
Вы не можете отвечать на сообщения
Вы не можете редактировать свои сообщения
Вы не можете удалять свои сообщения
Вы не можете голосовать в опросах
Вы не можете прикреплять файлы к сообщениям
Вы не можете скачивать файлы