Сегодня идет свободное скачивание без начисления Download

Гений, два земляка и птенчик / Un Genio, due compari, un pollo / A Genius, two partners and a dupe (1975) BDRip

Ответить на тему
 
Автор
Сообщение

UndegraundMen ®

Стаж: 4 года

Сообщений: 26522

Торрент-статистика

Пост 06-Июл-2013 06:14

[Цитировать]

Гений, два земляка и птенчик / Un Genio, due compari, un pollo / A Genius, two partners and a dupe (1975) BDRip- Год выпуска: 1975
Жанр: Комедия, Вестерн
Описание фильма:
Аферист меткий стрелок Джо Сэнкс объяединяется с вором Биллом и наивной Люси, чтобы украсть 300 тысяч долларов у нечистого на руку майора Кэбота из небольшого городка, который пытается выжить беззащитных индейцев с их исконных земель и тем самым уничтожить их. Когда правительство посылает в город инспектора с проверкой, майор идет на хитрость, переодевая своих бледнолицых прихлебателей в индейскую одежду и таким образом пытается скрыть факт своего преступления...
Режиссер: Дамиано Дамиани, Серджио Леоне
Актеры: Теренс Хилл, Робер Шарльбуа, Раймунд Хармсторф, Миу-Миу, Патрик Джозеф МакГухан, Пьеро Вида, Рик Батталья, Марио Брега, Фридрих фон Ледебур, Жан Мартен, Клаус Кински, Клара Колозимо, Бенито Стефанелли, Ренато Бальдини, Мириам Малер, Рой Босьер, Жерар Букарон, Армандо Боттин, Карла Кассола, Витторио Фанфони, Валерио Руджери
Продолжительность: 02:03:26
Качество видео: BDRip
Перевод: Профессиональный одноголосый, Любительский одноголосый

__________________________
Видеокодек: Xvid
Битрейт видео: ~1233 kbps
Размер кадра: 720x304
Аудио 1: 48 kHz, AC3 Dolby Digital, 2/0 (L,R) ch, ~224 kbps.....Профессиональный одноголосый
Аудио 2: 48 kHz, AC3 Dolby Digital, 2/0 (L,R) ch, ~192 kbps.....Любительский одноголосый

MI

Общее
Полное имя : Genij.dva.zemliyka.i.ptentcik.BDRip.avi
Формат : AVI
Формат/Информация : Audio Video Interleave
Размер файла : 1,43 Гбайт
Продолжительность : 2 ч. 3 м.
Общий поток : 1663 Кбит/сек
Программа кодирования : VirtualDubMod 1.5.10.2 (build 2542/release)
Библиотека кодирования : VirtualDubMod build 2542/release
Видео
Идентификатор : 0
Формат : MPEG-4 Visual
Профиль формата : Advanced [email protected]
Параметр BVOP формата : 2
Параметр QPel формата : Нет
Параметр GMC формата : Без точки перехода
Параметр матрицы формата : Выборочная
Идентификатор кодека : XVID
Идентификатор кодека/Подсказка : XviD
Продолжительность : 2 ч. 3 м.
Битрейт : 1233 Кбит/сек
Ширина : 720 пикс.
Высота : 304 пикс.
Соотношение сторон : 2,35:1
Частота кадров : 23,976 кадр/сек
Цветовое пространство : YUV
Подвыборка цветности : 4:2:0
Битовая глубина : 8 бит
Тип развёртки : Прогрессивная
Метод сжатия : С потерями
Бит/(Пиксели*Кадры) : 0.235
Размер потока : 1,06 Гбайт (74%)
Библиотека кодирования : XviD 73
Аудио #1
Идентификатор : 1
Формат : AC-3
Формат/Информация : Audio Coding 3
Расширение режима : CM (complete main)
Идентификатор кодека : 2000
Продолжительность : 2 ч. 3 м.
Вид битрейта : Постоянный
Битрейт : 224 Кбит/сек
Канал(ы) : 2 канала(ов)
Расположение каналов : Front: L R
Частота : 48,0 КГц
Битовая глубина : 16 бит
Метод сжатия : С потерями
Размер потока : 198 Мбайт (13%)
Выравнивание : Разделение по промежуткам
Продолжительность промежутка : 42 мс. (1,00 видеокадр)
Время предзагрузки промежутка : 500 ms
Аудио #2
Идентификатор : 2
Формат : AC-3
Формат/Информация : Audio Coding 3
Расширение режима : CM (complete main)
Идентификатор кодека : 2000
Продолжительность : 2 ч. 3 м.
Вид битрейта : Постоянный
Битрейт : 192 Кбит/сек
Канал(ы) : 2 канала(ов)
Расположение каналов : Front: L R
Частота : 48,0 КГц
Битовая глубина : 16 бит
Метод сжатия : С потерями
Размер потока : 170 Мбайт (12%)
Выравнивание : Разделение по промежуткам
Продолжительность промежутка : 42 мс. (1,00 видеокадр)
Время предзагрузки промежутка : 500 ms
Скриншоты:
Время раздачи: c 23:00 до 6:30
Вне форума [Профиль] [ЛС]
Похожие темы
Форум Тема Автор Торрент Отв. Посл. сообщение
./templates/default/images/folder_dl.gif Обучающее видео Евгений Гилёв - Вебинар по Конвертации данных 2.1 [2012] PCRec Omen
1 | 0

0 | 5015

63

2012-11-14 21:32
Omen Последнее
./templates/default/images/folder_dl.gif Обучающее видео Евгений Грин - Как начать бизнес с нуля [2013, Как начать свой бизнес, CAMRip, RUS] Omen
1 | 0

0 | 692

16

2013-04-22 15:46
Omen Последнее
./templates/default/images/folder_dl.gif Обучающее видео [Евгений Карташов] Lightroom-чародей [2013, RUS] Omen
1 | 0

0 | 815

18

2013-05-06 13:08
Omen Последнее
./templates/default/images/folder_dl.gif Обучающее видео Евгений Карташов. Photoshop для фотографа 2013 [2013, Обучение обработки фотографий, RUS] (Видеоурок) Omen
1 | 0

0 | 2344

45

2013-12-28 11:06
Omen Последнее
Показать сообщения:    
Ответить на тему

Текущее время: Сегодня 06:24

Часовой пояс: GMT + 3



Вы не можете начинать темы
Вы не можете отвечать на сообщения
Вы не можете редактировать свои сообщения
Вы не можете удалять свои сообщения
Вы не можете голосовать в опросах
Вы не можете прикреплять файлы к сообщениям
Вы не можете скачивать файлы