Сегодня идет свободное скачивание без начисления Download

Гений, два земляка и птенчик / Un genio, due compari, un pollo (1975) BDRip [H.264]

Ответить на тему
 
Автор
Сообщение

UndegraundMen ®

Стаж: 3 года 9 месяцев

Сообщений: 28329

Торрент-статистика

Пост 06-Июл-2013 06:14

[Цитировать]

Гений, два земляка и птенчик / Un genio, due compari, un pollo (1975) BDRip [H.264] - Русское название: Гений, два земляка и птенчик
Оригинальное название: Un genio, due compari, un pollo
Год выпуска: 1975
Жанр: Комедия, Вестерн
Страна: Италия, Франция, Германия (ФРГ)
Производство: AMLF, Rafran Cinematografica, Rialto Film Preben-Philipsen
Описание фильма:
Аризона, конец 19 века. Нечистый на руку мэр небольшого городка пытается выжить беззащитных индейцев с их исконных земель и тем самым уничтожить их. Когда правительство посылает в город инспектора с проверкой, мэр идет на хитрость, переодевая своих бледнолицых прихлебателей в индейскую одежду и таким образом пытается скрыть факт своего преступления. Однако он не учел того, что Джо Сенкс, самый быстрый и симпатичный стрелок на Диком Западе будет иметь другие планы…
Режиссер: Дамиано Дамиани, Серджио Леоне
Сценарий: Эрнесто Гастальди, Фульвио Морселла, Дамиано Дамиани
Продюсер: Клаудио Манчини, Фульвио Морселла, Серджио Леоне
Композитор: Эннио Морриконе
Актеры: Теренс Хилл, Миу-Миу, Робер Шарльбуа, Патрик МакГуэн, Раймонд Хармсторф, Пьеро Вида, Рик Батталья, Марио Валгой, Марио Брега, Фридрих фон Ледебур, Жан Мартен, Клаус Кински, Бенито Стефанелли, Клара Колозимо, Фернандо Черулли
Продолжительность: 02:03:25
Качество видео: BDRip
Перевод: Профессиональный одноголосый
Субтитры: Отсутствуют

Дата мировой премьеры: 16 декабря 1975
Видеокодек: MPEG-4 AVC/H.264
Битрейт видео: ~2304Кбит/сек
Размер кадра: 1024x448
Аудиокодек: AC3 2.0
Битрейт аудио: 224 kbps

MediaInfo:

Общее
Уникальный идентификатор : 233774738438748592585537171096598718220 (0xAFDF607C8583E2A7B4D4D6005DE3A70C)
Полное имя : H:\Downloads\Гений, два земляка и птенчик.mkv
Формат : Matroska
Размер файла : 2,18 Гбайт
Продолжительность : 2 ч. 3 м.
Общий поток : 2530 Кбит/сек
Дата кодирования : UTC 2013-07-04 13:16:50
Программа кодирования : mkvmerge v6.0.0 ('Coming Up For Air') built on Jan 20 2013 09:52:00
Библиотека кодирования : libebml v1.3.0 + libmatroska v1.4.0
Видео
Идентификатор : 1
Формат : AVC
Формат/Информация : Advanced Video Codec
Профиль формата : [url=mailto:[email protected]][email protected][/url]
Параметр CABAC формата : Да
Параметр ReFrames формата : 8 кадров
Параметры GOP формата : N=1
Идентификатор кодека : V_MPEG4/ISO/AVC
Продолжительность : 2 ч. 3 м.
Битрейт : 2304 Кбит/сек
Ширина : 1024 пикс.
Высота : 448 пикс.
Соотношение сторон : 2,25:1
Частота кадров : 23,976 кадр/сек
Цветовое пространство : YUV
Подвыборка цветности : 4:2:0
Битовая глубина : 8 бит
Тип развёртки : Прогрессивная
Бит/(Пиксели*Кадры) : 0.209
Размер потока : 1,94 Гбайт (89%)
Заголовок : Un Genio, due compari, un pollo
Библиотека кодирования : x264 core 125 r2208 d9d2288
Настройки программы : cabac=1 / ref=8 / deblock=1:-1:-1 / analyse=0x3:0x133 / me=umh / subme=9 / psy=1 / psy_rd=1.00:0.10 / mixed_ref=1 / me_range=32 / chroma_me=1 / trellis=2 / 8x8dct=1 / cqm=0 / deadzone=21,11 / fast_pskip=0 / chroma_qp_offset=-3 / threads=6 / lookahead_threads=1 / sliced_threads=0 / nr=0 / decimate=1 / interlaced=0 / bluray_compat=0 / constrained_intra=0 / bframes=3 / b_pyramid=2 / b_adapt=2 / b_bias=0 / direct=3 / weightb=1 / open_gop=0 / weightp=2 / keyint=250 / keyint_min=25 / scenecut=40 / intra_refresh=0 / rc_lookahead=60 / rc=2pass / mbtree=1 / bitrate=2304 / ratetol=1.0 / qcomp=0.60 / qpmin=10 / qpmax=51 / qpstep=4 / cplxblur=20.0 / qblur=0.5 / ip_ratio=1.40 / aq=1:1.00
Язык : Italian
Аудио
Идентификатор : 2
Формат : AC-3
Формат/Информация : Audio Coding 3
Расширение режима : CM (complete main)
Идентификатор кодека : A_AC3
Продолжительность : 2 ч. 3 м.
Вид битрейта : Постоянный
Битрейт : 224 Кбит/сек
Каналы : 2 канала
Расположение каналов : Front: L R
Частота : 48,0 КГц
Битовая глубина : 16 бит
Метод сжатия : С потерями
Размер потока : 198 Мбайт (9%)
Заголовок : Профессиональный одноголосый
Язык : Russian
Скриншоты:                    Время раздачи: с 13:00 до 24:00 по Москве (выходные круглосуточно), до 10 скачавших
Вне форума [Профиль] [ЛС]
Похожие темы
Форум Тема Автор Торрент Отв. Посл. сообщение
./templates/default/images/folder_dl.gif Обучающее видео Евгений Гилёв - Вебинар по Конвертации данных 2.1 [2012] PCRec Omen
1 | 0

0 | 4785

63

2012-11-14 21:32
Omen Последнее
./templates/default/images/folder_dl.gif Фантастика, фэнтези, ужасы, мистика Евгений Лукин - С нами бот (Игорь Князев) [2012] [MP3] Omen
1 | 0

0 | 322

2

2013-01-01 11:21
Omen Последнее
./templates/default/images/folder_dl.gif Фильмы 2011-2016 Дублёр [Евгений Абызов] (2012,Комедия) HDRip Витек1
0 | 1

0 | 731

8

2013-02-02 14:58
Витек1 Последнее
./templates/default/images/folder_dl.gif Обучающее видео [Евгений Карташов] Lightroom-чародей [2013, RUS] Omen
1 | 0

0 | 700

17

2013-05-06 13:08
Omen Последнее
./templates/default/images/folder_dl.gif Кулинария Евгений Свешников | Вариант Мак-Доннеля. Сицилианская защита. 2.f4 [2013] [DJVU] sashau
1 | 0

0 | 1215

16

2013-06-05 17:06
sashau Последнее
./templates/default/images/folder_dl.gif Обучающее видео Евгений Карташов. Photoshop для фотографа 2013 [2013, Обучение обработки фотографий, RUS] (Видеоурок) Omen
2 | 0

0 | 2173

42

2013-12-28 11:06
Omen Последнее
./templates/default/images/folder_dl.gif Обучающее видео Евгений Воробьев | Основы студийной фотографии (2013) [WEB-DL] UndegraundMen
1 | 0

0 | 1054

19

2013-12-29 08:00
UndegraundMen Последнее
./templates/default/images/folder_dl.gif Обучающее видео Евгений Беседа | Профессиональный дизайн сайта за 7 дней (2013) [PCRec] Omen
1 | 0

0 | 1960

45

2014-02-15 13:03
Omen Последнее
./templates/default/images/folder_dl.gif Обучающее видео [Россия] Евгений Карташов.Обнаженное тело. Секреты ретуши и тонировки 2014 [2014, RUS] Omen
2 | 0

0 | 1211

44

2014-05-07 23:00
Omen Последнее
./templates/default/images/folder_dl.gif Обучающее видео Евгений Карташов.Бюджетная фотостудия или секреты фотовспышек [2014, RUS] Omen
2 | 0

0 | 1281

59

2014-12-13 17:57
Omen Последнее
Показать сообщения:    
Ответить на тему

Текущее время: Сегодня 20:55

Часовой пояс: GMT + 3



Вы не можете начинать темы
Вы не можете отвечать на сообщения
Вы не можете редактировать свои сообщения
Вы не можете удалять свои сообщения
Вы не можете голосовать в опросах
Вы не можете прикреплять файлы к сообщениям
Вы не можете скачивать файлы