Сегодня идет свободное скачивание без начисления Download

Манина, девушка без покрывала / Manina, la fille sans voile (1952) DVDRip

Ответить на тему
 
Автор
Сообщение

UndegraundMen ®

Стаж: 3 года 9 месяцев

Сообщений: 28329

Торрент-статистика

Пост 06-Июл-2013 06:14

[Цитировать]

Манина, девушка без покрывала / Manina, la fille sans voile (1952) DVDRip-«A Revealing Episode on a Lonely Island!»
Год выпуска: 1952
Производство: Франция
Жанр: Мелодрама, Приключения
Режиссер: Вилли Розье
Актеры: Бриджит Бардо, Жан-Франсуа Кальве, Ховард Вернон, Эспанита Кортес, Раймон Корди, Полетт Андриё, Анри Джаник, Жан Дроз
Описание фильма:
25-летний студент из Парижа Жерар узнает на лекции о погребенных в море античных сокровищах. Он думает, что может найти их — 5 лет назад он нырял в том месте, где сокровища, по легенде, находятся, и нашел амфору. Он отправляется на поиски и встречает Манину, дочь смотрителя маяка. Найдет ли он сокровища и сбудутся ли его мечты?..
Продолжительность: 01:25:30
Качество видео: DVDRip
Перевод: Одноголосый закадровый

Видеокодек: Xvid
Битрейт видео: ~1848 kbps
Размер кадра: 704x528
Аудио: #1: AC3 2.0, 192.00 kbps (Русский одноголосый)
Аудио: #2: AC3 2.0, 224.00 kbps (Французкий оригинал)
Сэмпл:Скачать

MediaInfo:

General
Complete name : E:\Фильмы\Manina, la fille sans voile (1952) DVDRip.avi
Format : AVI
Format/Info : Audio Video Interleave
File size : 1.36 GiB
Duration : 1h 25mn
Overall bit rate : 2 282 Kbps
Writing application : VirtualDubMod 1.5.10.2 (build 2540/release)
Writing library : VirtualDubMod build 2540/release
Video
ID : 0
Format : MPEG-4 Visual
Format profile : Advanced [email protected]
Format settings, BVOP : 2
Format settings, QPel : No
Format settings, GMC : No warppoints
Format settings, Matrix : Default (MPEG)
Muxing mode : Packed bitstream
Codec ID : XVID
Codec ID/Hint : XviD
Duration : 1h 25mn
Bit rate : 1 848 Kbps
Width : 704 pixels
Height : 528 pixels
Display aspect ratio : 4:3
Frame rate : 29.970 fps
Color space : YUV
Chroma subsampling : 4:2:0
Bit depth : 8 bits
Scan type : Progressive
Compression mode : Lossy
Bits/(Pixel*Frame) : 0.166
Stream size : 1.10 GiB (81%)
Writing library : XviD 1.2.1 (UTC 2008-12-04)
Audio #1
ID : 1
Format : AC-3
Format/Info : Audio Coding 3
Mode extension : CM (complete main)
Format settings, Endianness : Big
Codec ID : 2000
Duration : 1h 25mn
Bit rate mode : Constant
Bit rate : 192 Kbps
Channel(s) : 2 channels
Channel positions : Front: L R
Sampling rate : 48.0 KHz
Bit depth : 16 bits
Compression mode : Lossy
Stream size : 118 MiB (8%)
Alignment : Split accross interleaves
Interleave, duration : 33 ms (1.00 video frame)
Interleave, preload duration : 500 ms
Audio #2
ID : 2
Format : AC-3
Format/Info : Audio Coding 3
Format profile : Dolby Digital
Mode extension : CM (complete main)
Format settings, Endianness : Big
Codec ID : 2000
Duration : 1h 25mn
Bit rate mode : Constant
Bit rate : 224 Kbps
Channel(s) : 2 channels
Channel positions : Front: L R
Sampling rate : 48.0 KHz
Bit depth : 16 bits
Compression mode : Lossy
Stream size : 137 MiB (10%)
Alignment : Split accross interleaves
Interleave, duration : 33 ms (1.00 video frame)
Interleave, preload duration : 500 ms
Вне форума [Профиль] [ЛС]
Показать сообщения:    
Ответить на тему

Текущее время: Сегодня 00:20

Часовой пояс: GMT + 3



Вы не можете начинать темы
Вы не можете отвечать на сообщения
Вы не можете редактировать свои сообщения
Вы не можете удалять свои сообщения
Вы не можете голосовать в опросах
Вы не можете прикреплять файлы к сообщениям
Вы не можете скачивать файлы