Сегодня идет свободное скачивание без начисления Download

Лепрекон 3: Приключения в Лас-Вегасе / Leprechaun 3 (Брайан Тренчард-Смит) (Ужасы, Комедия 1995) DVDRip

Ответить на тему
 
Автор
Сообщение

Omen ®

Стаж: 4 года 1 месяц

Сообщений: 194359

Торрент-статистика

Пост 06-Июл-2013 21:04

[Цитировать]

Лепрекон 3: Приключения в Лас-Вегасе
Leprechaun 3

«Welcome To Vegas... Your Losing Streak Is About To Begin!»
- Страна: США
Год выпуска: 1995
Жанр: Ужасы, Комедия
Описание фильма:
В руки жадному скупщику, работающему в ломбарде расположенном в Лас-Вегасе, попадает каменная статуэтка, изображающая некоего уродца. Наплевав на наказание продавца “ни при каких условиях не снимать надетый на шею статуи талисман”, вместе с драгоценностью скупщик снимает проклятие с Лепрекона. Тот оживает, сея на своем пути смерть и ужас, а однажды, в поисках оброненного золотого шиллинга, попадает в казино, где чувствует себя, как дома...
Режиссер: Брайан Тренчард-Смит
Актеры: Уорвик Дэвис, Джон Гэйтинс , Ли Армстронг, Марсело Туберт , Джон Демита .
Продолжительность: 01:30:20
Качество видео: DVDRip
Перевод: Двуголосый закадровый

Видеокодек: Xvid
Битрейт видео: ~900 Кбит/сек
Размер кадра: 576х384
Аудиокодек: MP3 2.0
Битрейт аудио: 160 Кбит/сек

MediaInfo:

Код:
Общее
Полное имя                               : Лепрекон 3: Приключения в Лас-Вегасе (1995).avi
Формат                                   : AVI
Формат/Информация                        : Audio Video Interleave
Размер файла                             : 692 Мбайт
Продолжительность                        : 1 ч. 30 м.
Общий поток                              : 1071 Кбит/сек
Программа кодирования                    : VirtualDubMod 1.5.10.1 (build 2366/release)
Библиотека кодирования                   : VirtualDubMod build 2366/release
Видео
Идентификатор                            : 0
Формат                                   : MPEG-4 Visual
Параметр BVOP формата                    : Да
Параметр QPel формата                    : Нет
Параметр GMC формата                     : Без точки перехода
Параметр матрицы формата                 : Default (H.263)
Идентификатор кодека                     : XVID
Идентификатор кодека/Подсказка           : XviD
Продолжительность                        : 1 ч. 30 м.
Битрейт                                  : 900 Кбит/сек
Ширина                                   : 576 пикселей
Высота                                   : 384 пикселя
Соотношение сторон                       : 3:2
Частота кадров                           : 29,970 кадров/сек
Цветовое пространство                    : YUV
Субдискретизация насыщенности            : 4:2:0
Битовая глубина                          : 8 бит
Тип развёртки                            : Прогрессивная
Метод сжатия                             : С потерями
Бит/(Пиксели*Кадры)                      : 0.136
Размер потока                            : 581 Мбайт (84%)
Аудио
Идентификатор                            : 1
Формат                                   : MPEG Audio
Версия формата                           : Version 1
Профиль формата                          : Layer 3
Идентификатор кодека                     : 55
Идентификатор кодека/Подсказка           : MP3
Продолжительность                        : 1 ч. 30 м.
Вид битрейта                             : Постоянный
Битрейт                                  : 160 Кбит/сек
Каналы                                   : 2 канала
Частота                                  : 48,0 КГц
Метод сжатия                             : С потерями
Размер потока                            : 103 Мбайт (15%)
Выравнивание                             : Соединение по промежуткам
Продолжительность промежутка             : 33  мс. (1,00 видеокадр)
Время предзагрузки промежутка            : 504  мс.
Библиотека кодирования                   : LAME3.92
Скриншоты:
       
       
Вне форума [Профиль] [ЛС]
Показать сообщения:    
Ответить на тему

Текущее время: Сегодня 05:13

Часовой пояс: GMT + 3



Вы не можете начинать темы
Вы не можете отвечать на сообщения
Вы не можете редактировать свои сообщения
Вы не можете удалять свои сообщения
Вы не можете голосовать в опросах
Вы не можете прикреплять файлы к сообщениям
Вы не можете скачивать файлы