Сегодня идет свободное скачивание без начисления Download

Лепрекон 2: Одна свадьба и много похорон / Leprechaun 2 (Родмэн Флендер) (Ужасы, Комедия 1994) DVDRip

Ответить на тему
 
Автор
Сообщение

Omen ®

Стаж: 4 года 1 месяц

Сообщений: 194382

Торрент-статистика

Пост 06-Июл-2013 21:44

[Цитировать]

Лепрекон 2: Одна свадьба и много похорон / Leprechaun 2- Год выпуска: 1994
Жанр: Ужасы, Комедия
Описание фильма:
994 год. Лепрекон решил жениться. Причем для того, чтобы любая понравившаяся девушка стала его невестой, она должна три раза чихнуть и если никто за эти три раза не скажет ей "будь здорова", быть ей вечной женой карлика. Но отец девушки спас ее... И вот 1000 лет спустя Лепрекон вновь выходит наверх - что-бы снова найти суженную...
Режиссер: Родмэн Флендер
Актеры: Уорвик Дэвис, Чарли Хит, Шивонн Деркин, Эдам Биск, Сэнди Бэрон.
Продолжительность: 01:21:38
Качество видео: DVDRip
Перевод: Двуголосый закадровый

Видеокодек: Xvid
Битрейт видео: ~1013 Кбит/сек
Размер кадра: 576х352
Аудиокодек: MP3 2.0
Битрейт аудио: 160 Кбит/сек

MediaInfo:

Общее
Полное имя : Лепрекон 2: Одна свадьба и много похорон (1994).avi
Формат : AVI
Формат/Информация : Audio Video Interleave
Размер файла : 692 Мбайт
Продолжительность : 1 ч. 21 м.
Общий поток : 1184 Кбит/сек
Программа кодирования : VirtualDubMod 1.5.10.1 (build 2366/release)
Библиотека кодирования : VirtualDubMod build 2366/release
Видео
Идентификатор : 0
Формат : MPEG-4 Visual
Параметр BVOP формата : Да
Параметр QPel формата : Нет
Параметр GMC формата : Без точки перехода
Параметр матрицы формата : Default (H.263)
Идентификатор кодека : XVID
Идентификатор кодека/Подсказка : XviD
Продолжительность : 1 ч. 21 м.
Битрейт : 1013 Кбит/сек
Ширина : 576 пикселей
Высота : 352 пикселя
Соотношение сторон : 16:10
Частота кадров : 29,970 кадров/сек
Цветовое пространство : YUV
Субдискретизация насыщенности : 4:2:0
Битовая глубина : 8 бит
Тип развёртки : Прогрессивная
Метод сжатия : С потерями
Бит/(Пиксели*Кадры) : 0.167
Размер потока : 591 Мбайт (86%)
Аудио
Идентификатор : 1
Формат : MPEG Audio
Версия формата : Version 1
Профиль формата : Layer 3
Идентификатор кодека : 55
Идентификатор кодека/Подсказка : MP3
Продолжительность : 1 ч. 21 м.
Вид битрейта : Постоянный
Битрейт : 160 Кбит/сек
Каналы : 2 канала
Частота : 48,0 КГц
Метод сжатия : С потерями
Размер потока : 93,4 Мбайт (14%)
Выравнивание : Соединение по промежуткам
Продолжительность промежутка : 33 мс. (1,00 видеокадр)
Время предзагрузки промежутка : 504 мс.
Библиотека кодирования : LAME3.92
Настройки программы : -m s -V 4 -q 0 -lowpass 16.7 -b 160
Скриншоты:
       
       
Вне форума [Профиль] [ЛС]
Показать сообщения:    
Ответить на тему

Текущее время: Сегодня 17:37

Часовой пояс: GMT + 3



Вы не можете начинать темы
Вы не можете отвечать на сообщения
Вы не можете редактировать свои сообщения
Вы не можете удалять свои сообщения
Вы не можете голосовать в опросах
Вы не можете прикреплять файлы к сообщениям
Вы не можете скачивать файлы