Сегодня идет свободное скачивание без начисления Download

Лепрекон / Leprechaun (Марк Джонс) (Ужасы, Комедия 1993) DVDRip

Ответить на тему
 
Автор
Сообщение

Omen ®

Стаж: 4 года 1 месяц

Сообщений: 194394

Торрент-статистика

Пост 06-Июл-2013 21:46

[Цитировать]

Лепрекон / Leprechaun - Год выпуска: 1993
Жанр: Ужасы, Комедия
Описание фильма:
Злой гном, персонаж ирландского фольклора, мстит людям, похитившим у него горшочек с золотом. Он их кусает и убивает. Поскольку кривоногий и говорливый Лепрекон больше смешон, чем страшен, кино про него тоже не особенно пугает и воспринимается вечерней сказочкой для малышей, правда закаленных страшилками.
Режиссер: Марк Джонс
Актеры: Уорвик Дэвис, Дженнифер Энистон, Кен Оландт, Марк Холтон, Роберт Гормэн, Шей Даффин
Продолжительность: 01:29:21
Качество видео: DVDRip
Перевод: Одноголосый закадровый

Видеокодек: DivX 3
Битрейт видео: ~919 Кбит/сек
Размер кадра: 512x384
Аудиокодек: MP3 2.0
Битрейт аудио: 160 Кбит/сек

MediaInfo:

Общее
Полное имя : Лепрекон (1993).avi
Формат : AVI
Формат/Информация : Audio Video Interleave
Размер файла : 695 Мбайт
Продолжительность : 1 ч. 29 м.
Общий поток : 1088 Кбит/сек
Программа кодирования : VirtualDubMod 1.5.10.1 (build 2439/release)
Библиотека кодирования : VirtualDubMod build 2439/release
Видео
Идентификатор : 0
Формат : MPEG-4 Visual
Идентификатор кодека : DIV3
Идентификатор кодека/Подсказка : DivX 3 Low
Продолжительность : 1 ч. 29 м.
Битрейт : 919 Кбит/сек
Ширина : 512 пикселей
Высота : 384 пикселя
Соотношение сторон : 4:3
Частота кадров : 23,976 кадра/сек
Цветовое пространство : YUV
Субдискретизация насыщенности : 4:2:0
Битовая глубина : 8 бит
Метод сжатия : С потерями
Бит/(Пиксели*Кадры) : 0.195
Размер потока : 587 Мбайт (84%)
Аудио
Идентификатор : 1
Формат : MPEG Audio
Версия формата : Version 1
Профиль формата : Layer 3
Режим : Joint stereo
Идентификатор кодека : 55
Идентификатор кодека/Подсказка : MP3
Продолжительность : 1 ч. 29 м.
Вид битрейта : Постоянный
Битрейт : 160 Кбит/сек
Каналы : 2 канала
Частота : 44,1 КГц
Метод сжатия : С потерями
Размер потока : 102 Мбайт (15%)
Выравнивание : Разделение по промежуткам
Продолжительность промежутка : 42 мс. (1,00 видеокадр)
Время предзагрузки промежутка : 500 мс.
Скриншоты:
       
       
Вне форума [Профиль] [ЛС]
Показать сообщения:    
Ответить на тему

Текущее время: Сегодня 22:52

Часовой пояс: GMT + 3



Вы не можете начинать темы
Вы не можете отвечать на сообщения
Вы не можете редактировать свои сообщения
Вы не можете удалять свои сообщения
Вы не можете голосовать в опросах
Вы не можете прикреплять файлы к сообщениям
Вы не можете скачивать файлы