Сегодня идет свободное скачивание без начисления Download

Пророчество 3: Вознесение / The Prophecy 3: The Ascent (Патрик Люссье) (Ужасы, Триллер, Мистика 2000) HDRip

Ответить на тему
 
Автор
Сообщение

Omen ®

Стаж: 4 года 1 месяц

Сообщений: 194359

Торрент-статистика

Пост 09-Июл-2013 11:16

[Цитировать]

Пророчество 3: Вознесение
The Prophecy 3: The Ascent
- Год выпуска: 2000
Жанр: Ужасы, Триллер, Мистика
Описание фильма:
Война ангелов не закончилась. Восставшие намеривались изменить мировоздание во имя нового Властителя - Пириела. И на их пути оставалась последняя преграда — Дэниел, сын ангела и земной женщины. Именно его должен разыскать и уничтожить посланец небес Зофаэл. Судьба человечества зависела от единственного существа, но не настолько, что бы в одиночку противостоять воинам неба…
Режиссер: Патрик Люссье
Актеры: Кристофер Уокен, Винсент Спано, Дэйв Буццотта, Кэйрен Батлер, Стив Хитнер, Брэд Дуриф, Скотт Клевердон, Джек МакГи, Сандра Эллис Лэфферти, Марк Принц Эдвардс, Дж.Д. Розен, Уильям Стэнфорд Дэвис, Дрю Суэйн, Энтони Росселли, Хи Бордер, Том Кэйн, Шоун Дрисколл, Джонни Мартин
Продолжительность: 01:23:54
Качество видео: HDRip c |BDRip 1080p|
Перевод: Профессиональный (многоголосый закадровый) "WEST"

_____________________________
Видеокодек: Xvid
Битрейт видео: ~1944 kbps
Размер кадра: 704x384
Аудио: AC3, 6 ch, 48.0 khz, 384 kbps

MI

Общее
Полное имя : Prorochestvo.3.voznesenie.2000.HDRip.avi
Формат : AVI
Формат/Информация : Audio Video Interleave
Размер файла : 1,37 Гбайт
Продолжительность : 1 ч. 23 м.
Общий поток : 2337 Кбит/сек
Программа кодирования : VirtualDubMod 1.5.10.3 | www.virtualdub-fr.org || (build 2550/release)
Библиотека кодирования : VirtualDubMod build 2550/release
Видео
Идентификатор : 0
Формат : MPEG-4 Visual
Профиль формата : Advanced [email protected]
Параметр BVOP формата : 2
Параметр QPel формата : Нет
Параметр GMC формата : Без точки перехода
Параметр матрицы формата : Выборочная
Идентификатор кодека : XVID
Идентификатор кодека/Подсказка : XviD
Продолжительность : 1 ч. 23 м.
Битрейт : 1944 Кбит/сек
Ширина : 704 пикс.
Высота : 384 пикс.
Соотношение сторон : 16:9
Частота кадров : 23,976 кадр/сек
Цветовое пространство : YUV
Подвыборка цветности : 4:2:0
Битовая глубина : 8 бит
Тип развёртки : Прогрессивная
Метод сжатия : С потерями
Бит/(Пиксели*Кадры) : 0.300
Размер потока : 1,14 Гбайт (83%)
Библиотека кодирования : XviD 73
Аудио
Идентификатор : 1
Формат : AC-3
Формат/Информация : Audio Coding 3
Расширение режима : CM (complete main)
Идентификатор кодека : 2000
Продолжительность : 1 ч. 23 м.
Вид битрейта : Постоянный
Битрейт : 384 Кбит/сек
Канал(ы) : 6 канала(ов)
Расположение каналов : Front: L C R, Side: L R, LFE
Частота : 48,0 КГц
Битовая глубина : 16 бит
Метод сжатия : С потерями
Размер потока : 230 Мбайт (16%)
Выравнивание : Разделение по промежуткам
Продолжительность промежутка : 42 мс. (1,00 видеокадр)
Время предзагрузки промежутка : 500 ms
Скриншоты:
             
Вне форума [Профиль] [ЛС]
Показать сообщения:    
Ответить на тему

Текущее время: Сегодня 01:13

Часовой пояс: GMT + 3



Вы не можете начинать темы
Вы не можете отвечать на сообщения
Вы не можете редактировать свои сообщения
Вы не можете удалять свои сообщения
Вы не можете голосовать в опросах
Вы не можете прикреплять файлы к сообщениям
Вы не можете скачивать файлы