Сегодня идет свободное скачивание без начисления Download

Звездная палата / The Star Chamber (Питер Хаймс) (Детектив, Триллер 1983) BDRip

Ответить на тему
 
Автор
Сообщение

Omen ®

Стаж: 5 лет

Сообщений: 190530

Торрент-статистика

Пост 09-Июл-2013 11:18

[Цитировать]

Звездная палата / The Star Chamber - Год выпуска: 1983
Жанр: Детектив, Триллер
Описание фильма:
Судье Стивену Хардину кажется, что он сходит с ума: из-за оплошности полицейских, совершивших ошибку при задержании преступника, он вынужден признать его невиновным. В результате убийца 8-летнего мальчика оказывается на свободе. Это не единичный случай.
Судья Бен Кофилд, видя душевные терзания Хардина, предлагает ему стать членом тайного общества, члены которого — такие же слуги несовершенной системы правосудия. Главная цель организации — разбираться с преступниками собственными силами.
Режиссер: Питер Хаймс
Актеры: Майкл Дуглас, Хэл Холбрук, Яфет Котто, Шэрон Глесс, Джеймс Б. Сиккинг, Джо Регалбуто, Дон Калфа
Продолжительность: 01:48:47
Качество видео: BDRip
Перевод: профессиональный (многоголосый закадровый)

Формат: AVI
Видео: XviD, 720x304 (2.37:1), 23.976 fps, 1499 kbps avg, 0.24 bit/pixel
Аудио: AC3 Dolby Digital, 48 kHz, 448 kbps, 3/2 (L,C,R,l,r) + LFE ch
Сэмпл: Ссылка

MediaInfo

Общее
Полное имя : Zvezdnaya.Palata.1983.XviD.BDRip.RusMVO.AMAPAHT.avi
Формат : AVI
Формат/Информация : Audio Video Interleave
Размер файла : 1,49 Гбайт
Продолжительность : 1 ч. 48 м.
Общий поток : 1957 Кбит/сек
Название фильма : Zvezdnaya.Palata.1983.XviD.BDRip.RusMVO.AMAPAHT
Режиссёр : AMAPAHT
Жанр : Drama/Mystery/Thriller
Программа кодирования : VirtualDubMod 1.5.10.3 | www.virtualdub-fr.org || (build 2550/release)
Формат оригинала/Имя : The Star Chamber / 1983
Примечание : RusMVO
Видео
Идентификатор : 0
Формат : MPEG-4 Visual
Профиль формата : Advanced [email protected]
Параметр BVOP формата : 2
Параметр QPel формата : Нет
Параметр GMC формата : Без точки перехода
Параметр матрицы формата : Выборочная
Идентификатор кодека : XVID
Идентификатор кодека/Подсказка : XviD
Продолжительность : 1 ч. 48 м.
Битрейт : 1499 Кбит/сек
Ширина : 720 пикселей
Высота : 304 пикселя
Соотношение сторон : 2,35:1
Частота кадров : 23,976 кадра/сек
Цветовое пространство : YUV
Субдискретизация насыщенности : 4:2:0
Битовая глубина : 8 бит
Тип развёртки : Прогрессивная
Метод сжатия : С потерями
Бит/(Пиксели*Кадры) : 0.286
Размер потока : 1,14 Гбайт (77%)
Библиотека кодирования : XviD 73
Аудио
Идентификатор : 1
Формат : AC-3
Формат/Информация : Audio Coding 3
Расширение режима : CM (complete main)
Идентификатор кодека : 2000
Продолжительность : 1 ч. 48 м.
Вид битрейта : Постоянный
Битрейт : 448 Кбит/сек
Каналы : 6 каналов
Расположение каналов : Front: L C R, Side: L R, LFE
Частота : 48,0 КГц
Битовая глубина : 16 бит
Метод сжатия : С потерями
Размер потока : 349 Мбайт (23%)
Выравнивание : Разделение по промежуткам
Продолжительность промежутка : 42 мс. (1,00 видеокадр)
Время предзагрузки промежутка : 500 мс.
Скриншоты:
       
Вне форума [Профиль] [ЛС]
Похожие темы
Форум Тема Автор Торрент Отв. Посл. сообщение
./templates/default/images/folder_dl.gif Для самых маленьких Серия обучающих игр Лунтик [3+] (P) (2006-2011) (1С - с 1-12 игры) (ALAWAR - 13-14 игры -Лунтик: Пропавшие краски и Лунтик: В поисках звезды) (RUS) [L] Aikivas
1 | 0

2 | 10703

41

2014-10-10 11:48
Aikivas Последнее
./templates/default/images/folder_dl.gif Книги для IPhone, IPod, Apple Форстер Э, Кинг С, Шекли Р, Вагнер К, Матесон Р, Пол Ф, Рыбаков В, Сильверберг Р, Рейнольдс А, Лукьяненко С, Эллисон Х, Браун Ф, Лавкрафт Г, и др - Созвездие Льва 2: Всадники Апокалипсиса [Булдаков Олег, 2016, Фантастика, 192Kbps], M4B VHS
1 | 0

0 | 2153

1

2016-07-26 17:32
VHS Последнее
./templates/default/images/folder_dl.gif Фильмы 2011-2016 Изгой-один: Звёздные войны. Истории / Rogue One: A Star Wars Story (Гарет Эдвардс) [2016 г., фантастика, боевик, приключения, HDRip-AVC] DUB | iTunes Theseus
1 | 0

0 | 8450

11

2017-03-24 14:53
Theseus Последнее
Показать сообщения:    
Ответить на тему

Текущее время: Сегодня 17:04

Часовой пояс: GMT + 3



Вы не можете начинать темы
Вы не можете отвечать на сообщения
Вы не можете редактировать свои сообщения
Вы не можете удалять свои сообщения
Вы не можете голосовать в опросах
Вы не можете прикреплять файлы к сообщениям
Вы не можете скачивать файлы