Сегодня идет свободное скачивание без начисления Download

Это правда, если я вру 2 / La verite si je mens! 2 (Тома Жилу) (Комедия 2000) HDTVRip

Ответить на тему
 
Автор
Сообщение

Omen ®

Стаж: 4 года 1 месяц

Сообщений: 194390

Торрент-статистика

Пост 09-Июл-2013 11:19

[Цитировать]

Это правда, если я вру 2
La verite si je mens! 2
- Год выпуска: 2000
Производство: Франция
Жанр: Комедия
Описание фильма:
Эдди, Иван, Серж и их друзья — болтливые и темпераментные парни, которые обожают быстроходные автомобили, моментально раздевающихся женщин, сверкающие часы и блестящие тряпки. Еще недавно они торговали модной одеждой, были преуспевающими бизнесменами, но конкуренты давят все сильнее и сильнее. А тут еще жены и любовницы.Так что впору «выкидывать белый флаг»! Спасти положение может только чудо...
Режиссер: Тома Жилу
Актеры: Ришар Анконина, Хосе Гарсия, Бруно Соло, Жильбер Мелки, Гад Эльмалех, Даниэль Прево, Ор Атика, Амира Касар, Элиза Товати, Энрико Масиас
Продолжительность: 01:43:29
Качество видео: HDTVRip
Перевод: Дублированный

Дата мировой премьеры: 7 февраля 2001
Дата российской премьеры: 2 ноября 2001
Видеокодек: Xvid
Битрейт видео: ~1811 kb/s
Размер кадра: 720x400
Аудиокодек: AC3 2.0
Битрейт аудио: 192 kb/s
Сэмпл: Ссылка

MediaInfo:

Общее
Полное имя : C:Торренты\Это правда, если я вру 2.2000.HDTVRip.avi
Формат : AVI
Формат/Информация : Audio Video Interleave
Профиль формата : OpenDML
Настройки формата : rec
Размер файла : 1,45 Гбайт
Продолжительность : 1 ч. 43 м.
Общий поток : 2009 Кбит/сек
Программа кодирования : AVI-Mux GUI 1.17.8.3, Feb 16 201019:42:50
Видео
Идентификатор : 0
Формат : MPEG-4 Visual
Профиль формата : Advanced [email protected]
Параметр BVOP формата : 1
Параметр QPel формата : Нет
Параметр GMC формата : Без точки перехода
Параметр матрицы формата : Выборочная
Режим смешивания : Сжатый битовый поток
Идентификатор кодека : XVID
Идентификатор кодека/Подсказка : XviD
Продолжительность : 1 ч. 43 м.
Битрейт : 1811 Кбит/сек
Ширина : 720 пикселей
Высота : 400 пикселей
Соотношение сторон : 16:9
Частота кадров : 25,000 кадров/сек
Цветовое пространство : YUV
Субдискретизация насыщенности : 4:2:0
Битовая глубина : 8 бит
Тип развёртки : Прогрессивная
Метод сжатия : С потерями
Бит/(Пиксели*Кадры) : 0.252
Размер потока : 1,31 Гбайт (90%)
Библиотека кодирования : XviD 65
Аудио
Идентификатор : 1
Формат : AC-3
Формат/Информация : Audio Coding 3
Расширение режима : CM (complete main)
Параметр Endianness формата : Big
Идентификатор кодека : 2000
Продолжительность : 1 ч. 43 м.
Вид битрейта : Постоянный
Битрейт : 192 Кбит/сек
Каналы : 2 канала
Расположение каналов : Front: L R
Частота : 48,0 КГц
Битовая глубина : 16 бит
Метод сжатия : С потерями
Размер потока : 142 Мбайт (10%)
Выравнивание : Соединение по промежуткам
Продолжительность промежутка : 64 мс. (1,60 видеокадра)
Время предзагрузки промежутка : 192 мс.
Заголовок : Дублированный
Скриншоты:
           
Вне форума [Профиль] [ЛС]
Показать сообщения:    
Ответить на тему

Текущее время: Сегодня 08:58

Часовой пояс: GMT + 3



Вы не можете начинать темы
Вы не можете отвечать на сообщения
Вы не можете редактировать свои сообщения
Вы не можете удалять свои сообщения
Вы не можете голосовать в опросах
Вы не можете прикреплять файлы к сообщениям
Вы не можете скачивать файлы