Сегодня идет свободное скачивание без начисления Download

Клуб «Завтрак» / The Breakfast Club (Джон Хьюз) (Драма, Комедия 1985) BDRip [H.264]

Ответить на тему
 
Автор
Сообщение

Omen ®

Стаж: 4 года 1 месяц

Сообщений: 194359

Торрент-статистика

Пост 09-Июл-2013 11:30

[Цитировать]

Клуб «Завтрак» / The Breakfast Club
«Они были чужими друг другу, пока не оказались в одно время и в одном месте»
- Год выпуска: 1985
Производство: США, A&M Films, Channel Productions, Universal Pictures
Жанр: Драма, Комедия
Описание фильма:
Пятеро школьников в наказание за проступки вынуждены приехать в школу в выходной день и написать сочинение «Кем вы себя представляете?» Молодым людям с большим трудом удается разобраться в своих проблемах…
Режиссер: Джон Хьюз
Актеры: Эмилио Эстевез, Пол Глисон, Энтони Майкл Холл, Джон Капелос, Джадд Нельсон, Молли Рингуолд, Элли Шиди, Перри Кроуфорд, Мэри Кристиан, Рон Дин
Продолжительность: 01:37:05
Качество видео: BDRip-AVC
Перевод: Многоголосый закадровый профессиональный (лицензия R5)
Язык субтитров: Русский, Английский
Вид субтитров: Вшитые отключаемые

Дата мировой премьеры: 7 февраля 1985
Видеокодек: MPEG-4 AVC/H.264
Битрейт видео: ~1697 kb/s
Размер кадра: 960x512
Аудиокодек: AC3 5.1
Битрейт аудио: 448 kb/s

MediaInfo

Код:
General
Unique ID                      : 249632084921261574517507747730928000433 (0xBBCD6407BB2A929097494DDA062D5DB1)
Complete name                  : The.Breakfast.Club.1985.BDRip-AVC./*spam*/.mkv
Format                         : Matroska
Format version                 : Version 4 / Version 2
File size                      : 1.46 GiB
Duration                       : 1h 37mn
Overall bit rate mode          : Variable
Overall bit rate               : 2 147 Kbps
Movie name                     : Release for /*spam*/
Encoded date                   : UTC 2013-07-08 08:19:13
Writing application            : mkvmerge v6.3.0 ('You can't stop me!') built on Jun 28 2013 20:09:41
Writing library                : libebml v1.3.0 + libmatroska v1.4.0
Video
ID                             : 1
Format                         : AVC
Format/Info                    : Advanced Video Codec
Format profile                 : [url=mailto:[email protected]][email protected][/url]
Format settings, CABAC         : Yes
Format settings, ReFrames      : 16 frames
Codec ID                       : V_MPEG4/ISO/AVC
Duration                       : 1h 37mn
Bit rate mode                  : Variable
Bit rate                       : 1 697 Kbps
Maximum bit rate               : 50.0 Mbps
Width                          : 960 pixels
Height                         : 512 pixels
Display aspect ratio           : 1.85:1
Frame rate mode                : Constant
Frame rate                     : 23.976 fps
Color space                    : YUV
Chroma subsampling             : 4:2:0
Bit depth                      : 8 bits
Scan type                      : Progressive
Bits/(Pixel*Frame)             : 0.144
Stream size                    : 1.12 GiB (77%)
Title                          : The Breakfast Club / Клуб «Завтрак» (1985)
Writing library                : x264 core 129 r2230 1cffe9f
Encoding settings              : cabac=1 / ref=16 / deblock=1:-3:-3 / analyse=0x3:0x133 / me=umh / subme=10 / psy=1 / psy_rd=1.00:0.00 / mixed_ref=1 / me_range=32 / chroma_me=1 / trellis=2 / 8x8dct=1 / cqm=0 / deadzone=21,11 / fast_pskip=0 / chroma_qp_offset=-2 / threads=6 / lookahead_threads=1 / sliced_threads=0 / nr=0 / decimate=0 / interlaced=0 / bluray_compat=0 / constrained_intra=0 / bframes=16 / b_pyramid=2 / b_adapt=2 / b_bias=0 / direct=3 / weightb=1 / open_gop=0 / weightp=2 / keyint=240 / keyint_min=23 / scenecut=40 / intra_refresh=0 / rc_lookahead=60 / rc=2pass / mbtree=1 / bitrate=1697 / ratetol=1.0 / qcomp=0.60 / qpmin=10 / qpmax=51 / qpstep=4 / cplxblur=20.0 / qblur=0.5 / vbv_maxrate=50000 / vbv_bufsize=62500 / nal_hrd=vbr / ip_ratio=1.40 / aq=1:1.00
Language                       : English
Default                        : Yes
Forced                         : No
Audio
ID                             : 2
Format                         : AC-3
Format/Info                    : Audio Coding 3
Mode extension                 : CM (complete main)
Format settings, Endianness    : Big
Codec ID                       : A_AC3
Duration                       : 1h 37mn
Bit rate mode                  : Constant
Bit rate                       : 448 Kbps
Channel(s)                     : 6 channels
Channel positions              : Front: L C R, Side: L R, LFE
Sampling rate                  : 48.0 KHz
Bit depth                      : 16 bits
Compression mode               : Lossy
Delay relative to video        : 13ms
Stream size                    : 311 MiB (21%)
Title                          : Многоголосый закадровый, лицензия R5
Language                       : Russian
Default                        : Yes
Forced                         : No
Text #1
ID                             : 3
Format                         : UTF-8
Codec ID                       : S_TEXT/UTF8
Codec ID/Info                  : UTF-8 Plain Text
Language                       : Russian
Default                        : No
Forced                         : No
Text #2
ID                             : 4
Format                         : UTF-8
Codec ID                       : S_TEXT/UTF8
Codec ID/Info                  : UTF-8 Plain Text
Language                       : English
Default                        : No
Forced                         : No
-Скриншоты:
       
       
Вне форума [Профиль] [ЛС]
Показать сообщения:    
Ответить на тему

Текущее время: Сегодня 05:09

Часовой пояс: GMT + 3



Вы не можете начинать темы
Вы не можете отвечать на сообщения
Вы не можете редактировать свои сообщения
Вы не можете удалять свои сообщения
Вы не можете голосовать в опросах
Вы не можете прикреплять файлы к сообщениям
Вы не можете скачивать файлы