Сегодня идет свободное скачивание без начисления Download

Железная Обезьяна / Siu nin Wong Fei Hung ji: Tit Ma Lau / Iron Monkey (Юэнь Ву-Пинг) (Боевик, Комедия 1993) DVDRip

Ответить на тему
 
Автор
Сообщение

Omen ®

Стаж: 4 года 1 месяц

Сообщений: 194394

Торрент-статистика

Пост 09-Июл-2013 12:00

[Цитировать]

Железная Обезьяна
Siu nin Wong Fei Hung ji: Tit Ma Lau / Iron Monkey
- Год выпуска: 1993
Жанр: Боевик, Комедия
Описание фильма:
Действие происходит в 19-м столетии в китайской деревеньке. Живет в этой деревеньке некто по имени Янг (Ронгуанг), для местных жителей - это просто врач и целитель. Но немногие знают о том, что этот добрый доктор имеет привычку вместе со своей помощницей Орхидеей (Ванг) облачаться в черное, принимая на себя обличье местного идола "Железной обезьяны", и под этим обличьем наш герой грабит богатых и раздает добытые богатства бедным. Некий коррумпированный чиновник несколько раз подвергается ограблению со стороны Янга и Орхидеи, и в конце концов решает обратиться за помощью к путешествующему с сыном целителю (Донни Йен). Он требует, чтобы тот исследовал загадочные события, происходящие с ним, и прекратил их, а до тех пор он будет держать в тюрьме юного сына этого целителя.
Режиссер: Юэнь Ву-Пинг
Актеры: Донни Йен, Жан Ванг, Джеймс Вонг, Ронггуанг Ю, Ху Сяо и др.
Продолжительность: 01:26:31
Качество видео: DVDRip
Перевод: Одноголосый закадровый
Автор перевода: Сергей Кузнецов

Дата мировой премьеры: 03.09.93
Видеокодек: Xvid
Битрейт видео: ~2195 Kbps
Размер кадра: 720x400 pixels
Аудиокодек: AC3 2.0
Битрейт аудио: 192 Kbps

MediaInfo 0.7.61

Format settings, BVOP : 1
Format settings, QPel : No
Format settings, GMC : No warppoints
Format settings, Matrix : Default (H.263)
Codec ID : XVID
Codec ID/Hint : XviD
Duration : 1h 26mn
Bit rate : 2 195 Kbps
Width : 720 pixels
Height : 400 pixels
Display aspect ratio : 16:9
Frame rate : 25.000 fps
Color space : YUV
Chroma subsampling : 4:2:0
Bit depth : 8 bits
Scan type : Progressive
Compression mode : Lossy
Bits/(Pixel*Frame) : 0.305
Stream size : 1.33 GiB (92%)
Writing library : XviD 1.2.0.dev47 (UTC 2006-11-01)
Audio
ID : 1
Format : AC-3
Format/Info : Audio Coding 3
Mode extension : CM (complete main)
Format settings, Endianness : Big
Codec ID : 2000
Duration : 1h 26mn
Bit rate mode : Constant
Bit rate : 192 Kbps
Channel(s) : 2 channels
Channel positions : Front: L R
Sampling rate : 48.0 KHz
Bit depth : 16 bits
Compression mode : Lossy
Stream size : 119 MiB (8%)
Alignment : Split accross interleaves
Interleave, duration : 40 ms (1.00 video frame)
Interleave, preload duration : 500 ms
Скриншоты:
       
Вне форума [Профиль] [ЛС]
Похожие темы
Форум Тема Автор Торрент Отв. Посл. сообщение
./templates/default/images/folder_dl.gif Зарубежное кино Железный человек 3 / Iron Man 3 (Шейн Блэк / Shane Black) [2013, США, Китай, фантастика, боевик, комикс, BDRip 720p] Dub + Sub Rus, Eng + Original Eng Omen
1 | 0

0 | 304

10

2014-01-22 05:00
Omen Последнее
Показать сообщения:    
Ответить на тему

Текущее время: Сегодня 20:55

Часовой пояс: GMT + 3



Вы не можете начинать темы
Вы не можете отвечать на сообщения
Вы не можете редактировать свои сообщения
Вы не можете удалять свои сообщения
Вы не можете голосовать в опросах
Вы не можете прикреплять файлы к сообщениям
Вы не можете скачивать файлы